<?xml version="1.0" standalone="no"?>
<!DOCTYPE svg PUBLIC "-//W3C//DTD SVG 1.1//EN" "http://www.w3.org/Graphics/SVG/1.1/DTD/svg11.dtd" >
<!--
2014-8-31: Created.
-->
<svg xmlns="http://www.w3.org/2000/svg">
<metadata>
Created by FontForge 20120731 at Sun Aug 31 17:02:39 2014
 By Sergio Díaz
Created by Sergio D&#195;&#173;az with FontForge 2.0 (http://fontforge.sf.net)
</metadata>
<defs>
<font id="JustVector" horiz-adv-x="512" >
  <font-face 
    font-family="JustVector"
    font-weight="500"
    font-stretch="normal"
    units-per-em="512"
    panose-1="2 0 6 9 0 0 0 0 0 0"
    ascent="448"
    descent="-64"
    bbox="15.3604 -42.4346 486.421 434.059"
    underline-thickness="25.6"
    underline-position="-51.2"
    unicode-range="U+F100-F197"
  />
    <missing-glyph />
    <glyph glyph-name="uniF178" unicode="&#xf178;" 
d="M101.919 209.525l138.368 139.198c34.7393 34.9277 91.0381 34.9277 125.757 0c8.31543 -8.75586 7.92578 -22.9229 -0.629883 -31.5293c-8.68848 -8.74512 -22.7432 -8.74512 -31.4521 0l-2.09863 2.4375c-17.459 14.8887 -43.6582 14.0439 -60.1396 -2.54492
l-141.476 -142.301c-9.31836 -8.63672 -23.3887 -8.63672 -32.0674 0.0927734c-8.68848 8.72949 -8.68848 22.8965 0 31.626c1.16797 1.16211 2.41211 2.16602 3.73828 3.02051zM412.569 206.5c8.67383 -8.72949 8.67383 -22.8965 0 -31.626l-140.846 -142.397
c-33.7666 -33.9668 -87.9209 -34.8936 -122.839 -2.82617c-1.25 0.844727 -2.43262 1.82227 -3.54297 2.93359c-8.67383 8.71387 -8.67383 22.8965 0 31.6104c8.69336 8.72949 22.7627 8.72949 31.4365 0l0.629883 -0.0966797c17.3613 -17.46 45.5166 -17.46 62.8838 0
l137.81 138.629c0.860352 1.33594 1.87402 2.5957 3.03125 3.77344c8.68848 8.72949 22.748 8.72949 31.4365 0zM196.229 114.657l138.378 139.197c34.7344 34.9082 91.0439 34.9082 125.758 0c34.7129 -34.9434 34.7129 -91.5762 0 -126.505l-102.718 -103.956
c-17.3623 -17.46 -45.502 -17.46 -62.8838 0l134.149 135.582c17.3867 17.46 17.3867 45.7881 0 63.2578c-17.3467 17.459 -45.502 17.459 -62.8691 0l-141.476 -142.325c-9.32324 -8.62207 -23.3887 -8.62207 -32.0664 0.107422
c-8.68848 8.71387 -8.68848 22.8916 0 31.6104c1.15137 1.16211 2.41113 2.16113 3.72754 3.03125zM177.403 127.35c-34.7041 -34.9385 -91.0234 -34.9385 -125.753 0c-34.7285 34.9287 -34.7285 91.5615 0 126.505l102.718 103.941
c17.3613 17.4746 45.5273 17.4746 62.8838 0l-134.149 -135.567c-17.3818 -17.4697 -17.3818 -45.7988 0 -63.2578c17.3574 -17.4697 45.502 -17.4697 62.8691 0l137.825 138.635c0.844727 1.33594 1.84766 2.61133 3.01562 3.7627
c8.67773 8.74023 22.7627 8.74023 31.4365 0c8.68359 -8.71387 8.68359 -22.8809 0 -31.6211z" />
    <glyph glyph-name="uniF15F" unicode="&#xf15f;" 
d="M25.5996 297.856c12.4629 2.19043 29.3486 3.83398 52.0303 3.83398c24.9082 0 42.9004 -5.20117 54.7988 -15.042c11.0693 -9.03223 18.2686 -23.5215 18.2686 -40.7402c0 -17.5 -5.54004 -31.7178 -15.7803 -41.5635
c-13.8291 -13.3945 -34.8721 -19.9531 -58.9512 -19.9531c-6.35938 0 -11.8994 0.271484 -16.5996 1.3623v-69.7197h-33.7666v181.822zM59.3711 212.28c4.42969 -1.37695 9.68262 -1.63867 16.5996 -1.63867c25.4619 0 40.9697 12.5752 40.9697 33.8994
c0 20.5059 -14.4023 31.1709 -37.918 31.1709c-9.41113 0 -16.0518 -0.819336 -19.6514 -1.63867v-61.793zM161.771 116.029v133.161h34.0381v-133.161h-34.0381zM218.777 209.541c0 15.3145 -0.557617 28.1602 -1.11035 39.6494h29.6084l1.65918 -19.958h0.839844
c6.08203 10.3838 20.751 22.9688 43.1719 22.9688c23.5205 0 47.8867 -15.043 47.8867 -57.1494v-79.0225h-34.043v75.1924c0 19.1387 -7.19824 33.6338 -25.7383 33.6338c-13.5576 0 -22.9678 -9.5752 -26.5674 -19.6924
c-1.11133 -2.7334 -1.65918 -6.83496 -1.65918 -10.6641v-78.4697h-34.0479v93.5117zM485.284 135.439c0 -27.8887 -5.81152 -47.8516 -19.9219 -60.4209c-13.8291 -12.3086 -33.4746 -16.1387 -52.0303 -16.1387c-17.1514 0 -35.4199 3.83008 -47.042 10.6602
l7.46973 25.4307c8.58105 -4.91992 22.958 -10.1123 39.3018 -10.1123c22.1387 0 38.748 11.4902 38.748 40.1924v11.4893h-0.558594c-7.75098 -11.7607 -21.3193 -19.6914 -39.3008 -19.6914c-33.4902 0 -57.2881 27.3408 -57.2881 65.0801
c0 43.7451 28.7803 70.2725 61.1582 70.2725c20.752 0 32.6611 -9.85156 39.0303 -20.7871h0.537109l1.39844 17.7764h29.6084c-0.547852 -9.02148 -1.12109 -19.958 -1.12109 -38.2871v-75.4639h0.0107422zM451.256 195.871c0 3.28125 -0.270508 6.29199 -1.10059 9.02148
c-3.60938 12.3076 -13.291 21.6064 -27.6885 21.6064c-19.0977 0 -33.209 -16.4102 -33.209 -43.4746c0 -22.6914 11.623 -41.0215 32.9424 -41.0215c12.7178 0 23.7979 8.21289 27.6689 20.5107c1.12109 3.28223 1.38672 7.93066 1.38672 11.7607v21.5967zM178.949 325.12
c16.8701 0 30.5508 -13.5225 30.5508 -30.1875c0 -16.666 -13.6807 -30.1875 -30.5508 -30.1875c-16.8809 0 -30.5615 13.5215 -30.5615 30.1875c0 16.665 13.6807 30.1875 30.5615 30.1875zM178.949 270.781c13.4912 0 24.4424 10.8135 24.4375 24.1514
c0 13.3428 -10.9463 24.1514 -24.4375 24.1514c-13.4961 0 -24.4482 -10.8135 -24.4482 -24.1514s10.9463 -24.1514 24.4482 -24.1514zM190.142 286.838c0.189453 -2.56055 -1.76172 -4.90039 -4.3623 -5.22754c-2.61133 -0.3125 -4.87988 1.51074 -5.0791 4.08008
c-0.200195 2.56055 1.76172 4.90527 4.3623 5.22266c0.829102 0.102539 1.61816 -0.00976562 2.31934 -0.296875v12.6104l-12.2217 -2.24219v-15.749h-0.0205078c0.0107422 -0.0517578 0.0205078 -0.0927734 0.0205078 -0.12793
c0.189453 -2.57031 -1.76074 -4.90527 -4.37207 -5.22754c-2.60156 -0.317383 -4.86914 1.50488 -5.06934 4.07031c-0.199219 2.56543 1.75098 4.90527 4.3623 5.22754c0.819336 0.102539 1.60742 -0.0205078 2.30957 -0.307617v18.1611v0.00488281l17.7402 2.99023
l0.0107422 0.00976562v0h0.00976562l-0.00976562 -0.0820312v-22.9785h-0.0205078c0.00976562 -0.0458984 0.00976562 -0.0869141 0.0205078 -0.137695z" />
    <glyph glyph-name="uniF17C" unicode="&#xf17c;" 
d="M100.67 408.069c21.6162 2.47266 43.4424 0.967773 65.1562 1.53027c-21.9492 -27.5195 -41.042 -59.1309 -44.1494 -94.9961c-6.41016 -55.2705 21.9189 -109.717 64.5732 -143.605c11.2695 -6.44141 7.17383 -20.2393 6.78906 -30.8281
c-2.72363 -26.291 -6.62988 -52.4492 -8.4834 -78.8271c33.3818 19.3281 63.2725 44.585 97.4434 62.3662c69.0332 -13.0557 144.205 -5.16016 204.293 33.2959c-0.0253906 -30.3926 0.0410156 -60.7852 0.0878906 -91.1875
c0.772461 -34.8105 -20.5576 -69.0127 -52.4697 -83.0771c-14.6895 -7.41309 -31.4014 -8.74512 -47.5859 -8.25293c-91.4844 0.368164 -182.979 -0.03125 -274.452 0.158203c-45.9004 0.291992 -86.042 41.3906 -86.1797 87.1885
c-0.302734 84.2344 0.255859 168.499 0.164062 252.744c-2.4834 43.9141 32.0205 85.6729 74.8135 93.4912zM221.204 348.825c26.8135 28.6211 66.1768 43.2998 104.96 43.874c35.001 1.35645 70.9277 -7.71094 99.3594 -28.626
c25.3896 -17.8994 43.8164 -47.7549 42.6592 -79.4932c-0.455078 -35.8193 -25.2305 -67.001 -55.5156 -83.8457c-54.8457 -30.8066 -128.287 -27.7656 -178.76 10.6035c-23.8232 18.1504 -40.873 47.2783 -39.168 77.8809
c0.164062 22.5127 11.0947 43.6787 26.4648 59.6064z" />
    <glyph glyph-name="uniF184" unicode="&#xf184;" 
d="M375.127 163.431h-0.246094h-89.1387l54.9785 -163.431h-187.525v51.4766l-127.596 -38.0469v146.678l127.591 -34.2734v37.5967h-3.34863v0.0410156c-60.667 0.890625 -109.548 49.9199 -109.548 110.264c0 60.8721 49.7822 110.265 111.232 110.265
c55.8799 0 102.104 -40.8369 110.039 -94.0439h3.56348c7.88965 53.207 54.1133 94.0439 109.998 94.0439c61.4453 0 111.273 -49.3926 111.273 -110.265c0 -60.9121 -49.8281 -110.305 -111.273 -110.305zM151.526 242.586c17.3359 0 31.4062 13.916 31.4111 31.1494
c0 17.1934 -14.0693 31.1455 -31.4111 31.1455c-17.3564 0 -31.4316 -13.9521 -31.4316 -31.1455c0 -17.2334 14.0752 -31.1494 31.4316 -31.1494zM345.999 273.735c0 -17.2334 14.0342 -31.1855 31.376 -31.1855c17.3926 0 31.4619 13.9521 31.4619 31.1855
c0 17.1934 -14.0742 31.1455 -31.4619 31.1455c-17.3418 0 -31.376 -13.9521 -31.376 -31.1455z" />
    <glyph glyph-name="uniF144" unicode="&#xf144;" 
d="M203.843 103.225c2.15039 -9.92773 -8.04883 -20.4492 -15.1914 -21.9961c-3.17969 -0.685547 -5.50879 0.47168 -5.93945 2.45312c-0.429688 1.98145 1.6084 4.09082 1.09082 6.47656c-1.55078 7.14746 -32.8291 30.7148 -91.627 75.7656
c-3.8252 -61.0918 -4.18359 -94.0029 -4.91602 -98.3193c-1.17676 -6.08301 -7.32617 -10.3115 -14.4688 -11.8584c-6.35352 -1.37695 -11.1924 1.74121 -12.5596 8.08984c-2.06836 9.52832 1.79199 83.9375 13.0049 222.28
c-0.43457 1.98145 -1.17188 3.48633 -1.25391 3.88086c-3.61035 16.6758 4.41797 27.5654 15.1445 29.8799c6.74805 1.45898 17.1416 -0.450195 18.6826 -7.59277c1.46484 -6.75293 -4.42285 -42.9414 -9.99414 -109.404c23.2139 38.6924 57.0879 83.8457 99.1133 137.416
c6.17969 7.98145 11.0488 12.3643 15.8105 13.3984c4.37207 0.947266 7.27051 -0.926758 8.38184 -6.08203c0.859375 -3.96777 -1.06055 -8.5459 -5.47852 -11.167c-23.3525 -30.4023 -56.5918 -80.4092 -101.647 -148.771
c60.2012 -38.0928 89.3594 -72.9395 91.8477 -84.4492zM445.665 230.364c9.70312 -44.8721 -8.66797 -92.4873 -33.29 -97.8125c-9.52832 -2.06348 -20.2598 1.43359 -25.1494 8.68848c-0.798828 -55.8691 0.168945 -87.2549 1.80273 -94.7969
c0.941406 -4.37207 4.78125 -4.79199 5.11914 -6.36914c0.942383 -4.37207 -2.72852 -8.48926 -6.71191 -9.34863c-9.51855 -2.05859 -15.9385 0.706055 -17.751 9.04688c-1.42871 6.61426 -4.61816 58.4238 -0.419922 152.515
c-5.01758 -6.81543 -10.8496 -11.5713 -17.4385 -14.2285c-2.66797 -43.3926 -16.7686 -68.4697 -39.7979 -73.4521c-15.3906 -3.33301 -28.5898 3.62988 -34.3193 20.1475c-6.65137 -14.792 -13.4609 -22.5947 -24.4893 -24.9805
c-14.6895 -3.17969 -25.5693 4.8584 -29.0098 20.7412c-3.60938 16.6758 -2.60059 38.9326 2.36035 67.8447l-11.4023 0.865234c-4.93066 -36.8125 -10.1885 -56.6572 -18.5293 -58.4648c-2.78027 -0.604492 -5.59082 0.875 -6.45117 4.83301
c-0.598633 2.78516 7.09082 24.8271 8.06934 64.5176c-4.98242 1.83789 -7.87012 3.70703 -8.64258 7.28027c-1.62793 7.54688 6.36914 20.4951 18.2783 23.0713c5.56055 1.19727 10.7012 -1.42383 11.7295 -6.19043c0.522461 -2.38086 0.579102 -6.51758 0.328125 -11.1465
l13.9727 -1.13672c1.20801 3.99902 3.38867 7.38281 6.3584 10.9365c2.21191 1.31055 4.11133 2.13477 4.90039 2.30371c5.95996 1.28516 15.0215 -2.16016 16.1377 -7.31641c0.860352 -3.96777 -1.15137 -8.15039 -5.76953 -13.7158
c-10.8799 -32.2871 -13.502 -58.6191 -9.46191 -77.2812c1.45898 -6.75391 5.09961 -10.123 7.87988 -9.51855c6.99902 1.51074 14.5098 13.8906 20.8896 37.0635c0.859375 14.0029 4.01855 30.7305 10.291 47.4062c5.19141 14.4229 11.7607 22.502 19.7012 24.2178
c5.16113 1.12109 10.041 -0.322266 12.9795 -4.25977c2.28906 0.911133 4.18848 1.74023 6.56934 2.25293c10.7314 2.31934 21.458 -6.99902 26.25 -27.1572c13.1221 7.55273 16.3018 20.5264 20.1416 27.0898c1.94043 39.7314 3.1084 56.0801 11.751 57.9482
c4.3623 0.942383 10.6084 -1.02832 11.6377 -5.7959c1.19824 -5.55469 -2.45801 -21.3145 -3.62012 -48.583c8.4375 20.5312 15.5186 32.041 23.8486 33.8477c12.7188 2.75488 26.2656 -8.03809 31.2578 -31.0625zM330.337 196.685
c-1.55078 7.14746 -5.18066 10.5117 -9.54883 9.56445c-11.9189 -2.58008 -27.5195 -43.7812 -21.248 -72.7656c1.80273 -8.33496 5.44336 -11.7041 10.998 -10.501c13.1074 2.83691 26.0664 44.7129 19.7988 73.7021zM425.774 228.137
c-1.80273 8.34082 -5.04883 11.8018 -8.62207 11.0234c-6.34961 -1.37695 -22.7227 -29.4395 -27.6377 -81.6279c2.43164 -7.36816 9.49707 -11.2432 15.8516 -9.86621c10.7207 2.31445 15.8105 13.3887 19.6191 34.166c3.36914 19.0156 3.2002 35.1895 0.789062 46.3047z
" />
    <glyph glyph-name="uniF16A" unicode="&#xf16a;" 
d="M42.25 236.683c10.7578 36.4951 39.7568 43.2383 44.9082 44.1592c28.5127 67.1387 95.8105 114.319 174.3 114.319c78.6377 0 146.048 -47.3643 174.448 -114.698c0.819336 -0.199219 1.74121 -0.429688 2.87305 -0.767578v90.2559
c-10.082 4.07031 -17.1885 13.8184 -17.1885 25.21c0 15.0381 12.3809 27.2334 27.6582 27.2334c15.2686 0 27.6377 -12.2002 27.6377 -27.2334c0 -12.8916 -9.08789 -23.6592 -21.2988 -26.4902v-97.3877c8.91895 -6.47168 18.2783 -17.1211 23.4287 -34.6006
c0 0 9.27246 -44.7803 -5.9082 -56.0801c0 0 -7.41895 -10.4395 -28.9277 -18.4883c-1.66895 -6.29199 -3.62988 -12.4717 -5.91895 -18.4775c-7.96191 -1.25 -16.6191 -2.78027 -25.707 -4.6543c13.1992 22.917 20.7197 49.126 20.7197 76.9795
c0 89.6455 -77.6699 162.313 -173.491 162.313c-95.7998 0 -173.471 -72.668 -173.471 -162.313c0 -28.626 7.93164 -55.4961 21.832 -78.8428c-7.88965 1.76074 -15.4678 3.25586 -22.6816 4.55078c-2.5498 6.41602 -4.67969 13.0312 -6.50781 19.7686
c-0.117188 0.0410156 -0.199219 0.0615234 -0.311523 0.102539c-22.748 8.12012 -30.4902 19.0723 -30.4902 19.0723c-15.1758 11.2842 -5.90332 56.0693 -5.90332 56.0693zM256 36.5771c66.4678 80.0518 230.4 87.291 230.4 87.291v-61.1074
c-148.429 -0.691406 -230.4 -101.161 -230.4 -101.161v-0.00976562s-81.9717 100.475 -230.4 101.166v61.1025s163.942 -7.22949 230.4 -87.2812zM412.77 187.791c0 -19.1182 -3.62988 -37.3906 -10.1992 -54.2412c-50.6318 -11.4277 -111.862 -33.3564 -146.57 -75.1514
v-0.00488281c-33.2598 40.0742 -90.9717 61.9004 -140.309 73.708c-6.90137 17.2441 -10.7617 36.0137 -10.7617 55.6846c0 83.7324 68.9199 151.608 153.922 151.608c85.0078 0.00488281 153.918 -67.876 153.918 -151.604zM186.22 211.804
c0 9.39551 -7.73145 17.0039 -17.2598 17.0039c-9.53809 0 -17.2695 -7.6084 -17.2695 -17.0039c0 -9.39453 7.72559 -17.0029 17.2695 -17.0029c9.52832 0 17.2598 7.6084 17.2598 17.0029zM227.21 254.802c0 14.4639 -11.9141 26.1885 -26.6035 26.1885
c-14.6787 0 -26.5781 -11.7246 -26.5781 -26.1885c0 -14.459 11.8994 -26.1885 26.5781 -26.1885c14.6943 -0.00488281 26.6035 11.7246 26.6035 26.1885z" />
    <glyph glyph-name="uniF127" unicode="&#xf127;" 
d="M407.219 307.712c0.405273 -1.2334 7.50098 -21.3047 7.50098 -27.0332v-21.709c0 -52.8389 -46.8115 -106.496 -75.8887 -159.739c-2.86133 -5.33008 -9.11816 -11.0645 -12.3955 -16.793c-4.91504 -8.60156 -10.6133 -17.6133 -15.5283 -26.624
c-18.0127 -30.7256 -36.3828 -62.6738 -54.8154 -94.208c-29.9004 48.3271 -60.0781 96.6699 -89.1592 145.817c-27.0342 45.8701 -63.2266 94.6172 -68.9668 140.487c-0.404297 3.68652 -0.685547 11.0596 -0.685547 11.8789v19.666
c10.2393 96.251 86.9375 142.945 156.574 142.945c52.0195 0 116.444 -25.3955 145.931 -96.2568c2.46289 -5.73438 5.7959 -12.2822 7.43359 -18.4316zM255.13 208.998c32.7676 0 59.8779 26.21 59.8828 58.9775c0 32.7686 -25.3486 58.9873 -58.1162 58.9873
c-26.6191 0 -57.2168 -16.3887 -57.2168 -52.4238v-12.6973c0 -0.824219 -0.132812 -9.84082 1.51562 -14.3408c11.0596 -28.2676 33.4648 -38.5029 53.9346 -38.5029z" />
    <glyph glyph-name="uniF12D" unicode="&#xf12d;" 
d="M63.959 -37.5752l191.861 459.976l192.221 -460.801h-71.793v0.825195h-100.157v72.4678l79.8105 40.0283l-9.35938 18.9746l-70.4512 -35.2666v26.46l46.8066 24.7705l-10.4697 19.252l-36.3369 -19.1904v46.6846h-50.2783v-73.4775l-36.7305 25.083l-11.9092 -17.6436
l48.6396 -33.3467v-80.7012v-14.0947h-161.854z" />
    <glyph glyph-name="uniF177" unicode="&#xf177;" 
d="M104.392 16.4912c-49.7207 42.2451 -81.3516 105.149 -81.3516 175.499c0 127.252 103.158 230.41 230.4 230.41c127.252 0 230.399 -103.158 230.399 -230.41c0 -63.2686 -25.5439 -120.546 -66.8262 -162.187c-36.0293 43.5557 -90.3271 71.3984 -151.271 71.3984
c-66.9434 0 -125.88 -33.5879 -161.352 -84.7109zM376.602 122.88c3.34375 7.46973 -1.41797 14.9297 -6.63574 17.5723c-33.0801 16.7012 -71.0811 24.207 -110.566 24.207c-40.1914 0 -78.2129 -9.07227 -112.379 -25.0518
c-3.01562 -1.39258 -8.25781 -6.7998 -4.94043 -16.3584c3.31738 -9.54883 10.6904 -8.84766 14.0439 -7.24512c31.3145 14.8936 66.3096 23.2754 103.275 23.2754c36.0088 0 70.1592 -7.95117 100.844 -22.1436c7.01953 -3.24121 13.0098 -1.72559 16.3584 5.74414z
M396.206 181.734l2.60645 7.81836c-0.0722656 3.87598 -1.83887 7.33203 -4.59766 9.68164c-41.1807 18.4932 -86.7539 28.8818 -134.815 28.8818c-48.082 0 -93.6855 -10.4141 -134.871 -28.9023c-2.70801 -2.38574 -4.51562 -5.73926 -4.56152 -9.61523l2.48828 -7.46973
c2.37012 -3.45117 6.14941 -5.84766 10.6445 -5.84766c1.51562 0 2.9082 0.415039 4.25977 0.885742c37.3809 16.3789 78.623 25.5645 122.035 25.5645c43.7402 0 85.2578 -9.32812 122.854 -25.9434c1.11621 -0.311523 2.22754 -0.706055 3.44531 -0.706055
c4.41406 0 8.12598 2.31445 10.5117 5.65234zM107.791 274.785c-5.60059 -3.38379 -9.38477 -9.4873 -9.37988 -16.5273c0 -10.6904 8.67383 -19.3535 19.3535 -19.3535c1.45996 0 2.82129 0.3125 4.19922 0.619141c42.4648 17.1475 88.8262 26.6807 137.436 26.6807
c48.5732 0 94.8945 -9.52344 137.35 -26.6396c1.3877 -0.327148 2.80078 -0.660156 4.2959 -0.660156c10.6797 0 19.3535 8.66309 19.3535 19.3535c0 7.54688 -4.41406 13.8652 -10.7109 17.0752c-46.5 18.5811 -97.1572 28.9336 -150.293 28.9336
c-53.627 0 -104.734 -10.5684 -151.604 -29.4814zM265.738 25.0518c35.3486 0 67.123 -15.3496 89.165 -39.6689c-30.6484 -15.0889 -64.9932 -23.7832 -101.463 -23.7832c-29.4248 0 -57.4521 5.72461 -83.334 15.7803c22.0527 28.8662 56.6123 47.6719 95.6318 47.6719z
" />
    <glyph glyph-name="uniF160" unicode="&#xf160;" 
d="M159.043 93.793h138.567c0 -74.4238 -62.0439 -134.753 -138.567 -134.753c-76.5293 0 -138.562 60.3291 -138.562 134.753c0 74.4297 62.0332 134.759 138.562 134.759v-134.759zM481.28 287.201c0 -73.2676 -61.0713 -132.644 -136.402 -132.644h-136.376v139.525
h0.164062c3.69141 70.0566 63.2627 125.757 136.212 125.757c75.3311 0 136.402 -59.3916 136.402 -132.639zM364.989 221.153c0 11.0947 -9.25195 20.0859 -20.6592 20.0859c-11.4023 0 -20.6387 -8.99121 -20.6387 -20.0859c0 -11.0898 9.24219 -20.0811 20.6387 -20.0811
c11.4072 0 20.6592 8.99121 20.6592 20.0811zM364.989 354.637c0 11.0898 -9.25195 20.0752 -20.6592 20.0752c-11.4023 0 -20.6387 -8.98535 -20.6387 -20.0752c0 -0.854492 0.0722656 -1.68945 0.179688 -2.50879l5.6416 -79.3496
c0 -7.96191 6.64648 -14.418 14.8223 -14.418c8.19238 0 14.8379 6.46094 14.8379 14.418l5.64258 79.3496c0.102539 0.819336 0.173828 1.6543 0.173828 2.50879z" />
    <glyph glyph-name="uniF11A" unicode="&#xf11a;" 
d="M107.52 355.84h46.0801v-79.4678v-45.4346v-120.857h-47.5596v0h-32.4502v0h-47.9902v0v0v42.9775v0v78.75v38.6309v3.48145h81.9199v81.9199zM71.6797 151.04h35.8398v81.9199h-35.8398v-81.9199zM163.84 273.92h46.0801v-163.84h-46.0801v163.84zM163.84 355.84
h46.0801v-46.0801h-46.0801v46.0801zM353.28 273.92v0v-119.373v-46.3818v-80.0049h-46.0439h-76.8359v46.0801h76.7998v35.8398h-76.7998v120.857v0v42.9824h122.88v0zM276.48 151.04h30.7197v81.9199h-30.7197v-81.9199zM486.4 273.92v-42.9824v0v-77.875v-45.4346
v-30.3467v-49.1211h-42.2715h-80.6094v46.0801h81.9209v35.8398h-81.9209v42.9824v120.857v0v0h122.881zM445.44 151.04v81.9199h-35.8408v-81.9199h35.8408z" />
    <glyph glyph-name="uniF112" unicode="&#xf112;" 
d="M219.791 121.339c0 -11.6533 -9.47656 -21.0947 -21.1504 -21.0947s-21.1357 9.44141 -21.1357 21.0947c0 11.6631 9.46191 21.1406 21.1357 21.1406s21.1504 -9.47168 21.1504 -21.1406zM453.12 144.153c0 -61.5732 -49.9766 -111.478 -111.575 -111.478
c-0.972656 0 -1.9248 0.0820312 -2.89258 0.107422c-19.4717 -41.9941 -61.9014 -71.1836 -111.263 -71.1836c-67.7637 0 -122.686 54.8867 -122.686 122.604c0 53.9033 34.8975 99.5947 83.3232 115.999c1.79199 83.1025 -29.0518 138.097 -64.6201 134.882
c-37.2168 -3.375 -67.6611 -3.375 -64.2656 15.2109c3.36816 18.5703 33.8115 -1.7002 37.2168 21.9697c3.3584 23.6338 -13.542 33.7715 11.8271 47.2832c23.3574 12.4473 29.4863 -18.0986 27.6631 -48.0762c86.3799 21.1553 158.024 -82.54 180.143 -118.928
c8.21777 1.93555 16.7422 3.09277 25.5586 3.09277c61.5938 0.00976562 111.57 -49.9053 111.57 -111.483zM216.207 206.198c3.68652 0.332031 7.4043 0.5625 11.1826 0.5625c7.08105 0 13.9727 -0.726562 20.7354 -1.87891c12.2168 18.7393 29.9062 33.5361 50.791 42.2197
c-61.9424 97.1875 -116.05 109.599 -146.893 106.056c55.0293 -41.8203 63.0469 -126.475 64.1836 -146.959zM323.671 84.2031c0 42.4551 -27.5859 78.4336 -65.8125 91.1924c-0.0458984 -0.117188 -0.102539 -0.235352 -0.143555 -0.347656
c-7.00391 2.33984 -14.3096 3.8291 -21.9238 4.49512c0.046875 0.143555 0.107422 0.271484 0.154297 0.415039c-2.82129 0.255859 -5.66309 0.43457 -8.55566 0.43457c-53.1816 0 -96.2822 -43.084 -96.2822 -96.1836c0 -53.125 43.1006 -96.2158 96.2822 -96.2158
c35.9727 0 67.292 19.7529 83.8193 48.9629c-0.12793 0.0361328 -0.255859 0.0615234 -0.378906 0.102539c3.66113 6.47168 6.57422 13.3428 8.66797 20.623c0.118164 -0.0253906 0.246094 -0.0458984 0.358398 -0.0712891c2.4375 8.45312 3.81445 17.3564 3.81445 26.5928z
M431.176 144.153c0 49.4795 -40.1562 89.5596 -89.6309 89.5596c-28.8926 0 -54.4355 -13.7373 -70.7432 -34.9951c46.3008 -17.5312 79.2676 -62.126 79.2676 -114.515c0 -10.1318 -1.36621 -19.9268 -3.68066 -29.3428c47.2061 2.5293 84.7871 41.4932 84.7871 89.293z
" />
    <glyph glyph-name="uniF15B" unicode="&#xf15b;" 
d="M465.454 337.603c11.5146 0 20.9463 -9.36914 20.9463 -20.7979v-249.604c0 -11.4336 -9.43164 -20.8027 -20.9463 -20.8027h-128.42c-24.0078 -13.2246 -51.625 -20.7979 -81.0342 -20.7979s-57.0264 7.57324 -81.0449 20.793h-128.409
c-11.5146 0 -20.9463 9.37402 -20.9463 20.8027v249.609c0 11.4287 9.43164 20.7979 20.9414 20.7979v0c0 11.4434 9.43066 20.7979 20.9404 20.7979h41.8975c11.5195 0 20.9453 -9.35938 20.9453 -20.7979h44.6309c24.0186 13.2305 51.6357 20.7979 81.0449 20.7979
s57.0264 -7.56738 81.0342 -20.7979h128.42zM46.5459 67.1953h98.8779c-34.8574 30.4893 -56.9863 75.0381 -56.9863 124.805s22.1338 94.3154 56.9912 124.805h-36.0449h-41.8975h-20.9404v-249.609zM331.229 67.1953c42.7051 25.4404 71.3926 71.751 71.3926 124.805
s-28.6875 99.3643 -71.3877 124.805c-10.8037 6.43164 -22.5029 11.541 -34.8574 15.0684c-0.742188 0.205078 -1.46875 0.369141 -2.19141 0.568359c-5.01172 1.3418 -10.1377 2.40137 -15.3594 3.20996c-1.4541 0.241211 -2.90332 0.487305 -4.35742 0.670898
c-6.04688 0.768555 -12.2109 1.28027 -18.4678 1.28027c-6.26172 0 -12.416 -0.511719 -18.4678 -1.28027c-1.45898 -0.183594 -2.9082 -0.429688 -4.35742 -0.670898c-5.22168 -0.808594 -10.3477 -1.86816 -15.3594 -3.20996
c-0.722656 -0.199219 -1.45996 -0.363281 -2.19141 -0.568359c-12.3545 -3.52734 -24.0596 -8.63184 -34.8574 -15.0684c-42.7109 -25.4404 -71.3877 -71.751 -71.3877 -124.805s28.6768 -99.3643 71.3828 -124.805c10.8027 -6.43164 22.502 -11.541 34.8564 -15.0684
c0.732422 -0.205078 1.46973 -0.363281 2.19141 -0.568359c5.0127 -1.3623 10.1582 -2.40137 15.3809 -3.20996c1.42871 -0.241211 2.8623 -0.487305 4.31055 -0.670898c6.05273 -0.768555 12.2168 -1.28027 18.4941 -1.28027s12.4365 0.511719 18.4834 1.28027
c1.45898 0.183594 2.89258 0.429688 4.32129 0.670898c5.22168 0.808594 10.3672 1.84766 15.3799 3.20996c0.72168 0.205078 1.44922 0.363281 2.19141 0.568359c12.3545 3.52734 24.0586 8.63184 34.8574 15.0684zM465.454 67.1953h0.00488281v249.609h-98.8828
c34.8574 -30.4893 56.9863 -75.0381 56.9863 -124.805s-22.1338 -94.3154 -56.9863 -124.805h98.8779zM371.221 192h-17.7305c0 53.3867 -43.7354 96.8145 -97.4902 96.8145v17.6074c63.5293 0.00488281 115.221 -51.333 115.221 -114.422z" />
    <glyph glyph-name="uniF136" unicode="&#xf136;" 
d="M486.4 210.493c0 -39.3369 -15.376 -75.7705 -41.498 -105.732l-137.999 139.606l113.884 95.1807c40.5713 -33.3057 65.6133 -78.8271 65.6133 -129.055zM192.025 170.747l-133.452 135.015c40.3242 53.626 113.644 89.4922 197.411 89.4922
c57.6465 0 110.306 -17.0186 150.723 -45.082zM88.1816 83.958c-38.7842 33.0596 -62.582 77.5527 -62.582 126.535c0 28.9688 8.33105 56.377 23.1582 80.7734l130.048 -131.574zM433.075 92.2979c-42.2656 -40.6729 -105.928 -66.5752 -177.105 -66.5703
c-21.4023 0 -42.1025 2.41211 -61.7529 6.79004c-32.4453 -26.7725 -78.6074 -53.7246 -119.096 -36.1172c17.3359 24.8779 28.8867 48.8711 36.6436 70.1182c-3.35938 2.16113 -6.95312 4.27051 -10.1484 6.56934l16.1436 13.8037v0.00488281l42.4248 33.4238h1.24414
l29.501 25.8867l0.194336 1.02344l2.0791 2.09961l100.485 83.9883z" />
    <glyph glyph-name="uniF164" unicode="&#xf164;" 
d="M26.0664 174.028c-0.143555 3.13379 -0.466797 6.19531 -0.466797 9.34961c0 132.014 103.147 239.022 230.4 239.022s230.4 -107.009 230.4 -239.022c0 -3.1543 -0.348633 -6.2207 -0.451172 -9.34961c-4.78711 127.627 -105.738 229.653 -229.949 229.653
c-124.217 0 -225.167 -102.026 -229.934 -229.653zM256 316.815c-77.6445 0 -140.938 -62.9297 -145.541 -142.274c-0.168945 3.07227 -0.445312 6.10254 -0.445312 9.19531c0 83.6504 65.3516 151.444 145.986 151.444s145.986 -67.7939 145.986 -151.444
c0 -3.09766 -0.276367 -6.12305 -0.450195 -9.19531c-4.59766 79.3447 -67.8965 142.274 -145.536 142.274zM256 272.518c26.3984 0 47.8311 -22.2314 47.8311 -49.623c0 -27.3877 -21.4326 -49.6182 -47.8311 -49.6182c-26.4043 0 -47.8359 22.2256 -47.8359 49.6182
c0 27.3916 21.4268 49.623 47.8359 49.623zM256 169.129c38.4668 0 69.6572 -2.12988 69.6572 -75.1816c0 -73.0889 -31.1904 -132.348 -69.6572 -132.348s-69.6572 59.2588 -69.6572 132.342c0 73.0576 31.1904 75.1875 69.6572 75.1875z" />
    <glyph glyph-name="uniF12B" unicode="&#xf12b;" 
d="M319.099 286.397c-3 -3.14844 -10.1113 -2.25781 -16.3018 -2.2832c-1.67969 -5.20703 -2.06836 -11.6846 -4.64941 -16.0205c10.3018 -8.17188 30.4287 -6.69727 39.5732 -16.0059c19.7012 7.31738 4.03906 22.2881 16.3018 34.3096
c18.6416 2.30957 22.7988 -9.62598 27.9297 -20.5879c-4.3877 -4.05469 -15.3809 -1.66406 -23.2812 -2.27832c-4.24902 -3.44531 -5.47754 -9.87109 -9.30762 -13.7363c4.22949 -9.55957 15.79 -11.9199 18.6416 -22.8564c23.9307 6.1748 48.6201 11.6689 74.4805 15.9902
c6.7793 7.07617 5.23828 22.3184 16.3027 25.165c18.1709 -3.4873 24.0078 -19.0928 25.6104 -38.877c-9.65137 -17.1621 -34.5811 -9.95801 -41.9131 4.55762c-24.1094 -3.74316 -47.1807 -8.53516 -69.8418 -13.7119c-1.81738 -5.33984 1.66895 -20.7764 -2.31934 -29.752
c15.2217 -10.3018 21.2383 8.04883 34.9189 6.87109c7.91992 -8.26367 8.15039 -39.0605 -9.30859 -36.5928c-9.95801 0.880859 -11.0996 10.4443 -11.6475 20.5771c-7.1123 -1.63867 -8.47949 2.35547 -13.9629 2.30371c-10.6699 -6.30273 -16 -17.8271 -27.9297 -22.8809
c1.54102 -20.3418 24.0693 -6.23145 34.9189 -16.0205c-0.952148 -16.6045 -13.1787 -22.124 -30.2803 -22.8711c-1.08008 13.7676 3.56934 24.7344 -11.627 32.0205c-15.4521 -2.34961 -22.5791 -12.877 -37.248 -16.0205c-0.230469 -7.08594 2.85156 -10.916 4.64844 -16
c4.09082 -2.80078 19.1904 3.48145 23.291 -4.57715c-0.137695 -17.6846 -24.2383 -30.0801 -37.248 -20.5928c-1.03906 10.168 6.29297 12.1035 9.30859 18.3096c-4.4082 4.8125 -6.70215 11.7139 -9.30859 18.2988c-14.4482 -5.62695 -27.4023 -12.7334 -46.5605 -13.7373
c0.0605469 -5.37598 -4.00977 -6.72266 -2.33984 -13.7109c-0.891602 -8.50977 11.2178 -4.24512 11.6475 -11.4434c3.93262 -20.7666 -29.2402 -23.9668 -34.9082 -9.14941c-0.470703 14.167 17.0195 10.7109 11.6279 29.7422
c-11.6992 4.51562 -31.5186 1.04395 -41.9121 6.86035c-6.16016 -2.31934 -6.29297 -10.583 -11.6279 -13.7266c1.0498 -6.59961 8.23828 -7.1582 6.98828 -16.0156c-15.2012 -5.96484 -38.041 -1.17773 -34.918 18.2988c8.81152 10.1221 24.5713 1.25977 30.249 16.0156
c-9.16016 10.8135 -19.1895 20.7871 -23.2598 36.5928c-34.9287 -7.61914 -63.2324 -21.7598 -95.4521 -32.0205c-3.05176 -7.69043 -3.2002 -18.2168 -9.30859 -22.876c-9.70703 -2.42773 -10.2705 -0.588867 -20.9609 0
c-9.22168 14.0645 -4.22949 44.4463 13.9717 45.7471c10.0303 2.23242 6.76953 -8.58105 13.9785 -9.14941c33.1875 7.77148 62.2178 19.6709 95.4414 27.4434c-7.11133 40.8877 52.7822 69.667 -13.9727 64.0713c-6.50195 20.1621 6.13867 35.6143 18.6221 34.3145
c20.9297 -2.20703 4.66895 -28.4316 20.9404 -36.624c14.9297 8.22266 25.3896 20.8027 44.2314 25.1758c1.35156 7.42383 -1.57129 10.6387 -2.31934 16.0098c-1.44922 5.4375 -14.3311 -0.353516 -16.3018 4.58789v16c7.54199 6.99414 27.3711 5.83105 32.5986 -2.28906
c1.86914 -10.2295 -4.1416 -12.7021 -11.6377 -13.7109c0.609375 -7.04492 5.04883 -10.3066 6.96875 -16.0205c14.7812 6.07715 37.3193 4.49023 58.209 4.56641c3.31738 2.82129 4.4082 7.875 4.64941 13.7373c1.77148 8.6123 -12.3604 1.57227 -9.30859 11.4277
c2.58594 24.3096 34.9854 10.4043 34.9131 -6.85547zM337.721 183.465c10.7412 6.2207 6.06152 27.5967 6.98828 43.4688c-28.6768 23.4346 -47.4775 -44.4463 -6.98828 -43.4688zM235.3 158.3c21.3711 -2.87207 51.251 20.2451 48.8809 41.1602
c-2.27832 20.1826 -41.9893 38.3848 -65.1777 27.4736c-29.8799 -14.1104 -7.26562 -65.4697 16.2969 -68.6338z" />
    <glyph glyph-name="uniF14B" unicode="&#xf14b;" 
d="M444.61 -38.4004l-67.5938 48.9424l-67.5742 -48.9424l25.7998 79.2119l-67.5938 48.916h83.5635l25.8047 79.2168l25.8252 -79.2168h83.5586l-67.5947 -48.916l25.8047 -79.2119v0zM315.853 34.5186v0c-2.68262 -8.16602 -11.8018 -36.2695 -20.4385 -62.7354
l-269.814 196.168h268.447l82.9697 254.449l103.102 -316.242h-65.3262c-5.43262 16.7119 -37.7754 115.947 -37.7754 115.947s-32.3643 -99.2354 -37.8066 -115.947h-122.301s84.7002 -61.3428 98.9434 -71.6396z" />
    <glyph glyph-name="uniF12E" unicode="&#xf12e;" 
d="M486.4 389.12v-159.504l-105.298 -81.4941l13.6543 -14.168l-143.16 -139.074l-124.615 121.037c-56.1416 0.767578 -101.382 45.1631 -101.382 99.8701c0 55.168 46.1367 99.9014 102.953 99.9014c45.2148 0 83.6865 -28.3232 97.4951 -67.6758l25.9941 25.0166
l61.9883 -59.7451zM470.769 238.612l0.164062 118.841l-227.677 -234.701l-35.5225 57.5127c5.08496 10.7881 7.99316 22.7588 7.99316 35.4004c0 47.0879 -39.3379 85.2988 -87.834 85.2988c-48.5068 0 -87.8184 -38.2109 -87.8184 -85.2988
c0 -47.1299 39.3066 -85.3096 87.8184 -85.3096c8.77539 0 17.2646 1.29004 25.2676 3.625l86.8809 -76.9492z" />
    <glyph glyph-name="uniF171" unicode="&#xf171;" 
d="M88.7295 30.3926c-34.2119 37.2217 -61.291 85.5293 -64.8086 150.303v18.8926c1.38184 27.3564 8.36035 52.1475 17.1006 74.7061c11.3301 29.2402 28.8311 57.1953 49.5107 74.6953c-0.0205078 -13.9873 0.347656 -27.3506 1.79199 -35.999
c4.37695 -26.2549 19.0098 -55.0088 36.9102 -72.8984c14.499 -14.499 33.9404 -24.458 54 -35.0918c40.0283 -21.2432 78.1006 -40.0029 117.898 -61.1943c25.5996 -13.6504 51.9473 -30.5107 59.3916 -57.6055c10.5322 -38.3184 -11.8115 -73.8555 -29.7012 -92.6973
c-16.4912 -17.3721 -38.1182 -29.2812 -63.8975 -33.3008h-30.6016c-63.2012 7.06543 -113.244 32.8193 -147.595 70.1904zM240.819 261.688c-35.6094 18.6777 -73.5596 37.96 -69.3047 90.9004c1.00391 12.3447 8.49414 31.5088 18.0127 42.2959
c13.542 15.3857 36.6133 22.1494 60.293 26.1123h11.6992c121.2 -9.75879 207.35 -85.7852 223.201 -212.398v-35.998c-0.711914 -0.200195 -1.03906 -0.748047 -0.890625 -1.80273c-2.80566 -36.1211 -13.6396 -67.3174 -27.0186 -91.8018
c-4.59766 -8.43262 -10.1172 -16.6191 -16.1895 -22.502c2.96973 50.3037 -12.3496 85.002 -36.8994 111.601c-13.4814 14.6074 -31.0635 25.0215 -50.3916 35.0977c-37.5137 19.5381 -75.6123 39.1572 -112.512 58.4961z" />
    <glyph glyph-name="uniF119" unicode="&#xf119;" 
d="M181.34 275.466c228.465 39.1221 305.061 -81.8789 305.061 -81.8789l-211.195 -61.1992l-48.8906 99.9375c23.5928 3.95801 45.7363 2.85156 65.1875 -0.77832l20.6699 -38.625l71.7979 19.5068s-87.1016 61.6553 -191.412 31.498l58.1172 -118.682l-211.517 -61.2451
s-61.4248 135.777 77.1992 193.352l-26.7881 55.1318l65.7412 7.5166l22.1689 -45.2969c1.3418 0.230469 2.51367 0.552734 3.86035 0.762695zM96.3887 134.328l70.4717 19.1133l-31.5439 64.9219c-59.3047 -38.7637 -38.9277 -84.0352 -38.9277 -84.0352z" />
    <glyph glyph-name="uniF107" unicode="&#xf107;" 
d="M148.547 250.43c2.73926 -39.168 -18.4883 -72.5664 -47.4316 -74.5986c-28.9336 -2.02734 -54.6152 28.0732 -57.3545 67.251c-2.73926 39.168 18.4883 72.5713 47.4316 74.6035c28.9385 2.02734 54.6201 -28.083 57.3545 -67.2559zM347.848 412.805
c6.73828 -1.70996 45.957 -32.3584 33.3623 -81.8838c-9.67188 -38.0566 -40.3203 -63.083 -68.4238 -55.915c-28.1143 7.17285 -43.0547 43.832 -33.3574 81.8838c9.67188 38.0518 40.3047 63.0889 68.4189 55.915zM413.763 284.544
c7.08105 0.102539 53.8516 -13.8291 54.707 -70.5283c0.639648 -43.5811 -22.835 -64.1426 -52.3926 -64.583c-29.5938 -0.44043 -54.0576 19.4199 -54.7021 62.9805c-0.650391 43.5664 22.8145 71.6904 52.3877 72.1309zM199.506 422.4
c28.1396 0 50.9541 -31.54 50.9541 -70.4307c0 -38.8916 -22.8145 -70.416 -50.9541 -70.416s-50.9492 31.5244 -50.9492 70.416c0 38.8906 22.8096 70.4307 50.9492 70.4307zM192.993 203.674c16.2666 23.332 37.4072 30.3867 57.4668 30.3867
c20.0498 0 39.209 -2.96973 55.8291 -26.0508c33.6074 -46.6787 55.0703 -64.7979 80.3936 -87.0498c39.5166 -34.6875 48.0771 -51.8965 48.0771 -82.2891c0 -30.3916 -20.5977 -77.0713 -69.9287 -77.0713c-49.3213 0 -75.3467 15.2021 -114.376 15.2021
c-39.0303 0 -62.8789 -10.8604 -112.205 -10.8604s-66.6729 50.4785 -66.6729 80.8711c0 30.3916 15.1758 51.0098 50.9551 80.8701c35.7734 29.8594 54.2051 52.6484 70.4609 75.9912z" />
    <glyph glyph-name="uniF147" unicode="&#xf147;" 
d="M449.931 419.287c18.8057 0 34.0273 -14.7812 34.0273 -33.0137v-394.757c0 -18.2324 -15.2217 -33.0293 -34.0273 -33.0293h-392.72c-18.8008 0 -34.0479 14.791 -34.0479 33.0293v394.757c0 18.2373 15.2422 33.0137 34.0479 33.0137h392.72zM162.862 33.5664v208.047
h-69.6221v-208.047h69.6221zM128.057 270.034c24.2578 0 39.3623 15.9639 39.3623 35.957c-0.460938 20.3984 -15.1094 35.9277 -38.9219 35.9277c-23.8086 0 -39.3887 -15.5342 -39.3887 -35.9277c0 -19.9883 15.1348 -35.957 38.4824 -35.957h0.46582zM413.834 33.5664
v119.296c0 63.9336 -34.3496 93.6504 -80.1582 93.6504c-36.9668 0 -53.4736 -20.2188 -62.7148 -34.3906v29.4961h-69.5967c0.911133 -19.5127 0 -208.046 0 -208.046h69.5908v116.203c0 6.20508 0.456055 12.4111 2.31934 16.8555
c5.01758 12.4258 16.4463 25.3027 35.7021 25.3027c25.1699 0 35.2568 -19.082 35.2568 -47.0576v-111.31h69.6006zM270.51 211.461c0.123047 0.194336 0.287109 0.430664 0.451172 0.655273v-0.655273h-0.451172z" />
    <glyph glyph-name="uniF108" unicode="&#xf108;" 
d="M27.5352 88.7754c-0.46582 0.681641 -0.90625 1.35156 -1.35645 2.02734c-0.604492 0.912109 -0.579102 1.50098 -0.579102 2.60156v6.86621c0 4.26465 0.978516 8.63672 1.64941 12.8555c5.27344 32.8145 13.8027 65.1426 26.1572 95.9951
c11.623 29.0098 26.665 56.7559 45.4971 81.7158c17.7607 23.5312 38.8604 44.8555 63.1553 61.6084c12.4307 8.57617 25.7588 15.9336 39.8232 21.4629c7.03418 2.76465 14.2588 5.06934 21.6064 6.83594c3.70703 0.885742 7.43945 1.63281 11.1924 2.24707
c1.9707 0.322266 3.94238 0.604492 5.91309 0.839844c2.14062 0.260742 4.31152 0.15918 6.46191 0.15918h14.1309h7.34766c1.93457 0 3.85449 -0.481445 5.75488 -0.855469c7.4082 -1.44434 14.7607 -3.23047 21.9902 -5.40723
c13.3779 -4.01367 26.3682 -9.36426 38.6504 -16.0713c23.127 -12.6357 43.2695 -29.9775 60.5801 -49.8076c18.5342 -21.2275 34.5039 -44.877 47.4424 -69.9238c15.2676 -29.5625 26.5107 -61.168 33.873 -93.624c0.615234 -2.74414 1.29102 -5.47363 1.99707 -8.20215
c1.91016 -7.49023 3.92676 -14.9561 5.46289 -22.5381c1.38281 -6.84082 2.53516 -13.9727 1.96094 -20.9824c-0.500977 -5.97949 -3.30176 -11.248 -6.79395 -16.0146c-4.13672 -5.64258 -9.16016 -10.6035 -14.3467 -15.2529
c-20.0703 -17.915 -43.0283 -32.082 -67.9883 -42.0039c-28.1953 -11.2031 -58.1787 -17.46 -88.2734 -20.624c-32.4863 -3.41504 -65.4854 -3.4502 -98.043 -0.742188c-28.0684 2.33496 -56.1309 7.02441 -82.96 15.8213
c-23.1934 7.58691 -45.5166 18.3701 -64.8701 33.3975c-9.09277 7.07031 -17.5 15.0371 -24.96 23.8281c-3.73242 4.4082 -7.23438 9.00586 -10.4756 13.7881zM57.5645 109.123c-0.174805 -0.988281 -0.0107422 -1.34668 0.424805 -2.22754
c0.306641 -0.609375 0.614258 -1.21387 0.921875 -1.80273c2.5957 -4.96094 5.64648 -9.6709 9.08789 -14.0801c14.7451 -18.8926 35.998 -31.4775 58.0449 -39.9922c26.3789 -10.1885 54.6104 -15.1807 82.6475 -17.8125
c31.0215 -2.9082 62.4736 -3.00977 93.5469 -0.829102c30.0654 2.10449 60.4365 7.30078 88.6484 18.2119c23.4238 9.06738 47.1494 22.9219 60.2979 45.1689c0.456055 0.757812 0.880859 1.55566 1.26953 2.34961c7.40918 15.0576 -0.0917969 30.5 -7.51074 43.8525
c-8.13086 14.6387 -15.5137 29.6758 -24.2432 43.9756c-7.18359 11.7402 -15.5342 22.5693 -24.2129 33.2041c-8.9082 10.8848 -18.2119 21.4316 -28.0107 31.5078c-11.2646 11.5869 -23.1836 22.6055 -36.0713 32.3584c-1.68359 1.26953 -3.48145 2.42188 -4.99121 3.88672
c-1.33105 1.29004 -2.86719 2.37988 -4.54688 3.15332c-3.06641 1.41309 -6.5791 1.73535 -9.7998 0.686523c-7.05566 -2.29883 -12.3037 -9.19629 -17.2285 -14.3926c-12.0117 -12.6875 -22.1543 -26.9053 -32.6553 -40.832
c-9.59473 -12.7236 -19.6455 -25.6357 -31.9648 -35.8555c-4.49512 -3.73242 -9.85547 -7.88477 -15.9023 -8.26855c-4.14746 -0.255859 -8.25293 0.634766 -12.0215 2.36523c-8.17676 3.75293 -14.5713 10.6807 -20.5107 17.2598
c-10.4346 11.5918 -23.9258 30.3662 -41.9639 24.5449c-12.8359 -4.14746 -22.7373 -15.252 -30.7861 -25.5537c-4.96191 -6.34375 -9.37012 -13.0967 -13.6914 -19.8916c-4.23438 -6.65039 -8.48828 -13.2861 -12.6514 -19.9883
c-8.36621 -13.5117 -16.1641 -27.5098 -21.3242 -42.5986c-1.34668 -3.92676 -2.49902 -7.90527 -3.45605 -11.9287c-0.501953 -2.14551 -0.958008 -4.30176 -1.34668 -6.47168z" />
    <glyph glyph-name="uniF138" unicode="&#xf138;" 
d="M303.539 214.871h116.301c-10.2295 -77.4756 15.166 -165.033 -27.1406 -213.355c-56.4482 -64.502 -222.751 -57.3389 -178.335 69.832c-86.9941 41.3184 -132.664 77.9053 -120.172 193.955c12.5801 116.864 124.217 168.003 213.223 155.172
c29.7422 -4.28516 83.2461 -26.2959 81.4287 -73.6973c-2.47363 -63.1963 -108.733 -67.6914 -89.1748 23.2656c-113.972 22.6357 -131.794 -259.892 0 -244.378c8.99023 22.0059 1.30469 60.708 3.87012 89.2061zM268.636 24.7812
c28.0166 5.59082 38.293 28.9375 34.9082 65.9404c-0.854492 3.02051 -3.25586 4.52051 -7.76172 3.89062c-29.0605 -3.02539 -63.2217 -48.8398 -27.1465 -69.8311z" />
    <glyph glyph-name="uniF168" unicode="&#xf168;" 
d="M363.612 49.833c12.2773 -28.2217 52.5977 -38.3594 52.5977 -38.3594v-35.1895c-62.8682 -11.9658 -92.4873 13.0664 -111.929 48.4355c-15.4824 -3.80469 -31.6416 -5.8623 -48.2812 -5.8623c-113.111 0 -204.79 92.9375 -204.79 207.601
c0 114.651 91.6787 207.601 204.79 207.601s204.811 -92.9492 204.811 -207.601c0 -74.6299 -38.8711 -140.037 -97.1982 -176.625zM362.179 199.01c0 9.1748 0 44.3076 0.00488281 53.4932c0 71.5107 -46.833 129.479 -104.611 129.479
c-57.7793 0 -104.597 -57.9688 -104.597 -129.479v-53.4883c0 -71.5166 46.8174 -129.479 104.597 -129.479c8.36035 0 16.4707 1.24414 24.2578 3.53223c-20.7871 35.7275 -51.1592 36.9307 -51.1592 36.9307v36.5928v4.20898
c44.7695 2.50879 80.0518 -17.1885 102.56 -41.1494c17.9199 23.2393 28.9482 54.6963 28.9482 89.3594z" />
    <glyph glyph-name="uniF102" unicode="&#xf102;" 
d="M298.138 293.678v6.86621c0 12.0215 0.829102 25.7744 -6.00586 36.1064c-6.01562 8.55566 -17.1729 12.8662 -27.4385 12.8662h-3.44531c-17.1523 -1.73535 -32.5781 -11.1719 -36.8945 -30.0547c-0.844727 -4.31543 -3.40527 -8.5957 -8.55566 -9.48145
l-48.0254 6.01074c-3.42578 0.885742 -8.58105 3.4707 -6.88672 10.3271c10.3066 54.1436 56.6221 73.0215 100.362 75.6016h10.3066c24.0127 0 54.8965 -6.85547 74.6084 -24.9297c23.9971 -22.3125 21.4424 -52.3721 21.4424 -85.043v-77.3369
c0 -23.1631 9.4209 -33.4902 18.873 -45.5117c2.5498 -4.31152 3.41992 -9.44141 -0.855469 -12.9082c-9.46191 -8.5957 -27.459 -24.0488 -37.75 -32.6396c-3.4248 -2.58594 -7.71094 -2.58594 -12.001 -0.849609c-16.3125 13.7217 -18.8672 19.7324 -28.3135 32.6396
c-16.292 -17.1875 -30.0029 -26.6289 -46.3154 -31.79c-10.2764 -2.58008 -21.4229 -4.27051 -35.1592 -4.27051c-41.1602 0 -73.7637 25.7383 -73.7637 76.4473c0 40.3809 21.4521 67.8604 53.1865 80.7676c16.292 7.71094 36.0186 11.1719 55.7412 13.7217
c12.8662 1.73047 25.7334 2.58105 36.8896 3.46094zM298.138 243.819v10.3223c-12.8662 0 -25.7334 -0.849609 -36.8896 -3.43066c-20.5771 -6.01074 -36.8945 -18.918 -36.8945 -46.3975c0 -21.4932 11.1768 -36.1006 30.0391 -36.1006
c2.59082 0 5.14062 0.885742 6.85547 0.885742c11.1514 2.58496 21.4424 10.3262 27.4434 22.3486c10.2754 17.1514 9.44629 32.6035 9.44629 52.3721zM456.12 2.63184c-4.19824 -3.28223 -8.38086 -1.41309 -6.54297 3.27637
c6.07715 14.9404 20.0342 49.4951 13.5322 57.416c-4.6543 6.05176 -23.7617 5.5752 -40.0693 4.21387c-7.45508 -0.967773 -13.9883 -1.4082 -19.1133 -2.36035c-4.65918 -0.445312 -5.59082 3.7168 -0.931641 6.99902c6.05664 4.20312 12.5898 7.44922 20.0449 9.80957
c26.542 7.93652 57.3232 3.24609 61.5215 -1.87891c0.912109 -1.40234 1.83887 -4.17285 1.83887 -7.93066v-2.80078c-0.460938 -16.8086 -9.31348 -49.0088 -30.2803 -66.7441zM27.9092 69.376c-5.14062 4.20898 -0.9375 10.25 5.12012 6.99902
c64.7725 -37.8008 144.906 -60.6924 227.855 -60.6924c52.208 0 108.549 9.80469 162.16 30.8271c3.71191 1.39844 7.91016 3.28223 11.6328 4.68555c8.3916 3.72168 15.8467 -5.64258 7.45508 -11.6943c-6.05762 -4.64941 -12.5596 -8.84766 -19.0928 -12.6104
c-48.9365 -29.3945 -112.292 -44.8105 -167.275 -44.8105c-88.5508 0 -167.757 32.6855 -227.855 87.2959z" />
    <glyph glyph-name="uniF125" unicode="&#xf125;" 
d="M194.959 333.153c0 11.5918 -2.36035 89.2471 97.833 89.2412h70.7275v-80.7627h-52.0186c-10.291 0 -20.7002 -10.665 -20.7002 -18.5908v-53.043h72.6172c-2.9082 -40.6729 -8.90918 -77.8701 -8.90918 -77.8701h-64.0664v-230.528h-95.4834v230.533h-46.4785v77.5781
h46.4785v63.4424z" />
    <glyph glyph-name="uniF197" unicode="&#xf197;" 
d="M363.976 420.598c0 0 31.7285 3.01074 56.5918 -13.332c9.01074 0.429688 16.291 -3.45117 21.0117 -12.0527c4.72656 -8.60156 13.292 -29.251 6.43652 -41.7285c-2.14062 -2.58008 -6.86621 7.75195 -6.86621 7.75195s-3.43066 -12.4824 -9.86133 -17.208
c0.860352 -25.8105 -9.43066 -43.8682 -12.4307 -49.8994c-1.29102 -3.44043 -0.430664 -6.46191 0.849609 -9.90234c1.29004 -3.44043 18.4473 -64.0918 17.5869 -84.3115c-0.860352 -20.2188 -11.1465 -44.3076 -19.2969 -52.4795
c1.70996 -16.7783 -6.00098 -30.9814 -9.86133 -37.8623c-3.86035 -6.88184 -12.4316 -32.6914 -14.582 -44.7285c-2.14551 -12.0527 -3 -24.96 -0.424805 -28.8311c2.5752 -3.87012 14.1465 -15.918 13.292 -21.9385
c-0.860352 -6.02148 -13.292 -12.9023 -19.2979 -12.9023c-6 0 -18.4424 3.87012 -21.4424 12.0518c-2.99512 8.17188 -3.43066 22.3594 -1.28027 30.5312c2.14062 8.18164 16.7227 67.9678 8.15137 103.25c-21.0127 -9.46191 -56.1719 -9.04199 -56.1719 -9.04199
s-6 -31.4014 -13.291 -49.46c-2.57031 -4.30078 -2.14551 -33.5615 -2.14551 -52.0498c0 -18.498 6.43066 -47.3184 6.43066 -47.3184s9.00586 -6.46191 7.7207 -14.6279c-1.27441 -8.17676 -11.5762 -12.9082 -20.582 -12.9082c-9.00098 0 -21.002 6.88184 -21.002 18.0693
c0 11.1816 1.70508 36.5615 0.849609 55.0596c-0.849609 18.499 -0.419922 30.541 -3.42578 42.1582c-3.00488 11.6172 -11.5762 42.1582 -12.4355 65.8184c-3.00098 0 -6.00098 2.15039 -6.00098 2.15039s-14.1514 -16.3486 -24.0078 -25.8105
c1.28516 -6.45117 4.70996 -18.0684 4.70996 -20.6484c0 -2.58105 2.58105 -4.73145 6.86621 -6.45117c4.28516 -1.73047 17.5723 -9.04199 17.1475 -16.3486c-0.430664 -7.31152 -17.1523 -8.60156 -31.7295 -2.15039c-3.4248 1.7207 -15.8613 43.4385 -17.5762 49.0391
c-1.7207 5.5918 -3.00586 8.60156 -0.855469 13.3379c2.14062 4.7207 8.14551 20.209 7.29102 29.251c-0.860352 9.03125 -17.582 23.2295 -28.7285 23.2295c-8.57617 0 -21.6777 -13.1484 -31.2988 -20.6494c-11.5762 -9.04199 -24.8623 -22.7988 -28.293 -24.9492
c-3.43555 -2.16113 -30.4434 -51.2002 -35.5889 -65.3877c-2.14062 -5.59082 -6.42578 -33.5615 -29.1426 -32.6914c-10.292 0.860352 -19.7275 12.042 9.43066 32.2607c7.39844 17.1016 17.6895 34.8525 18.3291 38.4004c0.640625 3.54785 8.36133 47.749 21.2275 89.6924
c12.8623 41.9375 31.8369 61.9414 35.3643 64.8496c2.89746 2.24805 4.50586 3.54785 1.60742 5.16113c-2.8877 1.60742 -33.4385 27.75 -27.6475 83.2412c0.961914 6.45117 3.86035 4.83789 5.78516 -10c1.93066 -14.8379 13.8242 -49.6895 40.1973 -60.6611
c2.57031 -0.962891 21.5449 13.5469 118.328 20.6484c0.645508 17.1006 3.2207 35.1689 3.2207 35.1689s-6.75293 5.16113 -7.7207 15.4883c-3.21582 -5.1709 -5.14062 -6.46094 -9.32422 -5.81055c-4.17773 0.639648 -3.86035 20.6387 -2.89258 34.8408
c0.972656 14.1982 17.3672 20.332 23.4805 20.9717c8.0332 4.19824 16.7168 3.54785 16.7168 3.54785s14.7764 15.0537 56.5811 8.17188z" />
    <glyph glyph-name="uniF15D" unicode="&#xf15d;" 
d="M161.607 91.1924h301.358c-35.3076 -72.9961 -106.363 -122.163 -185.958 -129.593h-42.2354c-25.2471 2.35547 -49.7412 8.88867 -73.1592 19.4102c-0.00585938 3.30762 -0.00585938 105.391 -0.00585938 110.183zM350.991 401.7v-153.938
c-7.84863 7.1582 -169.364 154.046 -175.452 159.58c25.9736 9.75879 52.9971 15.0586 80.4512 15.0586c32.9824 0 64.9463 -7.01953 95.001 -20.7002zM151.024 396.79c2.61133 -2.38086 83.2871 -75.7559 87.1885 -79.2988
c-3.99805 -3.65527 -197.975 -180.244 -204.231 -185.938c-5.39648 19.9834 -8.38184 40.1406 -8.38184 59.9648c0 87.0508 48.0566 165.494 125.425 205.271zM137.405 -5.66309c-43.0186 26.041 -76.7227 65.4131 -95.1963 111.811
c2.64746 2.40723 87.5059 79.6826 95.1963 86.7021v-198.513zM375.296 388.47c68.5312 -41.8096 111.104 -116.716 111.104 -196.951c0 -25.8506 -4.48535 -51.4248 -13.0566 -76.001h-98.0479v272.952z" />
    <glyph glyph-name="uniF182" unicode="&#xf182;" 
d="M434.191 209.593c12.4727 -5.19238 35.9834 -8.03906 52.209 -5.28418c-10.2656 -11.0186 -26.8242 -21.0127 -54.9785 -20.7715c-37.5859 -152.284 -289.798 -216.884 -405.822 -58.7832c44.4365 -42.4043 121.825 -46.126 170.911 4.57227
c-28.7744 -4.21387 -49.7148 24.0127 -14.3564 39.2549c-31.8057 -3.47168 -49.4844 13.4346 -56.7295 27.7969c7.44922 7.80273 15.6719 11.4229 31.5801 12.4717c-34.8105 8.22852 -47.667 25.2422 -51.6045 45.8955c9.66602 2.31445 21.7549 4.29102 28.3643 3.40527
c-30.5098 15.9385 -41.0977 39.9102 -39.4238 57.9375c54.4873 -20.2285 89.1963 -36.4697 118.227 -52.0391c10.3477 -5.51465 21.8828 -15.4473 34.8975 -28.0576c16.5732 43.8018 37.0537 88.96 72.1152 111.359c-0.578125 -5.08398 -3.30762 -9.80469 -6.90723 -13.6807
c9.96875 9.03711 22.8711 15.2529 36.0146 17.0557c-1.51562 -9.86133 -15.708 -15.4121 -24.2842 -18.6377c6.49707 2.0127 41.0166 17.4131 44.7695 8.64258c4.44922 -9.97363 -23.8086 -14.5713 -28.6211 -16.2969
c-3.58398 -1.19238 -7.17285 -2.52344 -10.7109 -3.95215c43.75 4.35742 85.5039 -31.7188 97.6992 -76.498c0.860352 -3.22559 1.73633 -6.7998 2.51953 -10.5576c16.0049 -5.9541 44.9844 0.296875 54.3232 6.03125
c-6.75879 -15.9639 -24.3096 -27.7295 -50.1914 -29.8643z" />
    <glyph glyph-name="uniF103" unicode="&#xf103;" 
d="M25.5996 145.208v62.5312c0 5.72852 4.70605 10.4141 10.4707 10.4141h110.495l-48.1074 -83.3691h-62.3877c-5.76465 0 -10.4707 4.6748 -10.4707 10.4238zM104.31 17.167l-35.2617 -23.8896c-4.74609 -3.22559 -8.09961 -1.18262 -7.44434 4.51074l4.70605 40.8779
c0.655273 5.69336 5.27344 8.01855 10.2656 5.17188l27.2891 -15.5908c4.9873 -2.85742 5.19141 -7.86426 0.445312 -11.0801zM112.778 40.207l-27.29 15.5957c-4.99121 2.85156 -6.74805 9.24219 -3.84473 14.2129l126.366 219.055
c2.86719 4.97656 9.3291 6.72266 14.3164 3.83496l27.2891 -15.5547c4.99219 -2.8877 6.70703 -9.2832 3.8457 -14.2441l-126.367 -219.069c-2.8623 -4.9668 -9.3291 -6.6709 -14.3154 -3.83008zM208.952 134.784l48.1074 83.3691h27.6992l39.0654 -83.3691h-114.872z
M365.635 109.906c-10.9209 5.45215 -65.3311 130.437 -79.2783 163.046c-13.9521 32.6094 -56.0898 119.414 -42.46 126.167c9.69727 4.84375 44.5078 -63.5078 70.6045 -104.545c26.0605 -41.0371 80.5527 -146.847 87.2607 -158.895
c6.6709 -12.083 -6.4209 -22.1484 -13.7012 -25.1641c-7.28613 -3.01562 -11.5049 -6.02148 -22.4258 -0.609375zM401.393 52.46l-16.4453 25.8555c-3.39453 5.37598 -1.63379 12.0166 3.88574 14.8535l15.667 8.02246c5.52539 2.81152 12.4365 0.533203 15.3809 -5.09375
l12.9688 -24.832c2.94922 -5.61719 0.942383 -12.8262 -4.37695 -16l-11.208 -6.67188c-5.31934 -3.21484 -12.4775 -1.46387 -15.8721 3.86621zM461.896 -15.3604c-3.43555 10.9521 -29.6602 11.6787 -41.4004 28.1758c-11.7812 16.4404 -2.04297 24.9092 2.04785 28.8203
c47.6162 26.7012 39.3525 -56.9961 39.3525 -56.9961zM486.4 145.208c0 -5.74902 -4.70605 -10.4238 -10.4707 -10.4238h-55.3115c-0.609375 3.21484 -1.59766 6.43066 -3.27148 9.44629c-1.43359 2.56543 -5.07422 9.48242 -10.1484 19.1279
c-7.32129 13.9219 -17.832 33.8281 -29.0859 54.7949h97.8125c5.76465 0 10.4697 -4.68555 10.4697 -10.4141v-62.5312h0.00585938z" />
    <glyph glyph-name="uniF179" unicode="&#xf179;" 
d="M424.802 56.0332c-5.98535 -20.0547 -24.9658 -32.1025 -42.374 -26.8701c-17.4072 5.2334 -26.6699 25.7129 -20.6797 45.7686c5.99121 20.0596 24.9551 32.0869 42.3789 26.8535c17.4082 -5.21191 26.6592 -25.6914 20.6748 -45.752zM351.365 -37.6631
c-42.998 4.83887 -74.752 40.9961 -82.3555 82.5352c-4.78711 26.04 0.675781 45.1426 -16.4863 51.5635c-29.9873 11.2529 -69.2119 -8.77051 -107.06 -4.12207c-34.7383 4.27539 -60.6514 30.5869 -61.7676 74.2705c-1.02832 40.1006 28.2939 94.9912 -12.3594 113.46
c17.2803 -3.625 31.5596 -7.41406 39.127 -22.6816c16.1895 -32.6553 -9.36426 -95.8574 18.5342 -113.47c13.7217 -8.65332 38.5391 -4.27539 55.583 -2.06348c19.4561 2.50391 33.0244 8.6123 51.4814 8.24805c-10.7266 14.6279 -27.4434 18.084 -39.1162 26.8193
c-14.0186 10.4902 -33.9717 29.3779 -43.2383 47.457c-16.2363 31.626 -13.4199 88.6221 -37.0693 109.343c-17.9609 15.7285 -47.8818 16.0918 -78.2334 10.3008c21.0537 17.7822 74.6396 20.7979 94.7041 6.20117c26.9824 -19.6309 21.1816 -74.5684 45.3018 -103.153
c10.8906 -12.8975 27.0498 -17.8633 39.1221 -22.6914c13.7783 -5.51465 28.6875 -10.8447 49.4082 -12.3955c15.6826 68.2236 -37.166 77.542 -69.9902 107.284c-24.5098 22.2051 -40.8271 48.374 -37.0742 103.158c5.22266 -28.6055 10.7422 -52.04 30.8945 -68.0811
c13.5469 -10.793 32.4609 -14.2178 47.3545 -22.6914c35.8711 -20.4238 68.5107 -53.5508 78.2334 -103.153c7.77734 4.40332 13.2461 14.9609 20.5879 24.7559c7.11719 9.49219 16.1279 17.6787 16.4766 30.9502c0.480469 19.0156 -12.9795 34.0684 -24.7197 43.3252
c-28.6416 22.5947 -81.3564 16.8652 -70.001 78.3926c5.11035 -15.3193 6.22656 -32.3994 18.54 -41.2627c17.5918 -12.6768 45.3574 -12.6514 65.8838 -24.7549c18.0479 -10.6338 45.4248 -34.4268 45.292 -66.0176c-0.138672 -35.6807 -35.707 -49.8379 -20.5879 -90.7773
c35.5225 -9.70215 53.3457 -10.542 72.0645 -26.8184c73.2666 -63.667 19.5371 -206.096 -88.5303 -193.931zM450.104 47.5186c14.0283 46.9912 -7.64453 95.002 -48.4512 107.233c-40.7959 12.2314 -85.248 -15.9434 -99.2812 -62.9248
c-14.0391 -47.0068 7.6543 -95.0166 48.4502 -107.243c40.8018 -12.2422 85.2637 15.959 99.2822 62.9346z" />
    <glyph glyph-name="uniF148" unicode="&#xf148;" 
d="M429.266 -28.3086c0.896484 0 1.77734 0.296875 2.49902 0.855469c1.15137 0.916016 1.71973 2.36523 1.49512 3.81445l-26 166.83c-0.224609 1.37207 -1.11621 2.53418 -2.40137 3.0918c-1.28418 0.558594 -2.75391 0.415039 -3.89551 -0.378906
c-29.1689 -19.9932 -69.4121 -20.9355 -99.3896 -2.54395l-116.132 155.853c29.1221 22.8047 61.2559 33.1211 81.9912 26.3115c2.14551 -0.716797 4.41406 0.445312 5.11035 2.56543c0.701172 2.13477 -0.460938 4.41797 -2.58105 5.11426
c-23.7568 7.81348 -58.2959 -2.94922 -90.1377 -28.1084c-26.4287 -20.8789 -53.6367 -55.4492 -50.7285 -89.8203c0.194336 -2.23242 2.20117 -3.86035 4.37207 -3.68652c2.23828 0.179688 3.8916 2.14062 3.70215 4.37305
c-2.44238 28.7891 19.1748 58.3213 42.0195 78.0898l113.705 -152.611c0.00488281 -0.435547 0.0869141 -0.871094 0.241211 -1.30566c3.53711 -9.89746 5.3291 -20.2656 5.3291 -30.8232c0 -24.9287 -9.85547 -48.2295 -27.7549 -65.623
c-0.983398 -0.952148 -1.41309 -2.31934 -1.16211 -3.66016c0.260742 -1.33105 1.16211 -2.45312 2.42188 -2.98047l155.734 -65.0391c0.501953 -0.214844 1.0293 -0.317383 1.56152 -0.317383zM280.571 42.2402c16.8037 18.375 25.9941 41.9629 25.9941 67.0713
c0 7.9668 -0.942383 15.8574 -2.80566 23.5273c29.8291 -15.3555 67.502 -14.2754 96.4453 2.97949l23.9512 -153.549zM102.139 255.482c0.118164 0 0.230469 0 0.337891 0.03125c2.2373 0.178711 3.88672 2.13477 3.69727 4.37207
c-2.63672 31.1553 22.9014 63.1807 47.6768 82.7549c29.2871 23.1377 61.6865 33.6436 82.5957 26.7773c2.15039 -0.716797 4.40918 0.460938 5.11035 2.59082c0.701172 2.12012 -0.460938 4.40332 -2.58105 5.11035c-23.7568 7.80273 -58.2959 -2.96973 -90.1367 -28.1191
c-26.4404 -20.8896 -53.6377 -55.4395 -50.7295 -89.8105c0.179688 -2.10938 1.95117 -3.70703 4.0293 -3.70703zM375.951 -1.99707c5.88867 20.2549 22.6865 35.8555 43.6074 40.0127l9.70703 -62.2793l-53.3145 22.2666v0zM194.222 404.157
c-52.8018 0 -134.824 -74.665 -105.221 -127.149l174.521 -232.039l165.744 -69.2275l-28.2725 181.361l-174.525 231.055c-7.33203 11.1924 -18.8467 16 -32.2461 16zM194.222 420.352c19.4668 0 35.5898 -8.09961 45.4707 -22.8301l174.219 -230.661
c1.60254 -2.12988 2.66699 -4.62793 3.08203 -7.27539l28.2725 -181.345c0.90625 -5.80078 -1.39258 -11.6279 -6 -15.2422c-2.90332 -2.27832 -6.43066 -3.45117 -10 -3.45117c-2.10938 0 -4.22852 0.415039 -6.25098 1.24902l-165.734 69.2324
c-2.66309 1.10645 -4.97656 2.89844 -6.70703 5.21289l-174.521 232.028c-0.424805 0.578125 -0.814453 1.16211 -1.16211 1.78613c-12.6572 22.4307 -10.8545 49.8076 5.06836 77.0771c23.9102 40.9189 75.1621 74.2188 114.263 74.2188v0z" />
    <glyph glyph-name="uniF140" unicode="&#xf140;" 
d="M25.6104 204.493c0.137695 113.224 94.3516 205.025 210.417 205.106c116.111 0.0771484 210.094 -91.627 209.991 -204.851c-0.0410156 -22.9688 -4.08105 -45.0098 -11.2588 -65.6387l51.6504 -164.71l-158.279 46.2793
c-27.9297 -13.3994 -59.3516 -21.0225 -92.5596 -21.0479c-116.111 -0.0673828 -210.084 91.6377 -209.961 204.861zM378.409 204.713c0.0869141 76.8057 -63.667 139.019 -142.438 138.957c-78.751 -0.0566406 -142.664 -62.3467 -142.751 -139.151
c-0.0869141 -76.8057 63.6729 -139.008 142.402 -138.967c23.8184 0.0205078 46.2285 5.80566 65.9873 15.8818l72.0684 -22.7275v0l33.582 -8.37109l-9.17969 24.2891c-0.03125 -0.0361328 -0.0615234 -0.0869141 -0.0917969 -0.118164l-2.35059 6.61523
l-0.0410156 0.102539v0l-26.6191 74.3066c5.99121 15.3193 9.40039 31.8408 9.43164 49.1826z" />
    <glyph glyph-name="uniF15C" unicode="&#xf15c;" 
d="M161.607 91.1924h301.358c-35.3076 -72.9961 -106.363 -122.163 -185.958 -129.593h-42.2354c-25.2471 2.35547 -49.7412 8.88867 -73.1592 19.4102c-0.00585938 3.30762 -0.00585938 105.391 -0.00585938 110.183zM350.991 401.7v-153.938
c-7.84863 7.1582 -169.364 154.046 -175.452 159.58c25.9736 9.75879 52.9971 15.0586 80.4512 15.0586c32.9824 0 64.9463 -7.01953 95.001 -20.7002zM151.024 396.79c2.61133 -2.38086 83.2871 -75.7559 87.1885 -79.2988
c-3.99805 -3.65527 -197.975 -180.244 -204.231 -185.938c-5.39648 19.9834 -8.38184 40.1406 -8.38184 59.9648c0 87.0508 48.0566 165.494 125.425 205.271zM137.405 -5.66309c-43.0186 26.041 -76.7227 65.4131 -95.1963 111.811
c2.64746 2.40723 87.5059 79.6826 95.1963 86.7021v-198.513zM375.296 388.47c68.5312 -41.8096 111.104 -116.716 111.104 -196.951c0 -25.8506 -4.48535 -51.4248 -13.0566 -76.001h-98.0479v272.952z" />
    <glyph glyph-name="uniF17A" unicode="&#xf17a;" 
d="M451.917 248.51c0 -23.46 -19.0879 -42.4863 -42.6348 -42.4863c-23.5723 0 -42.6494 19.0264 -42.6494 42.4863s19.082 42.4805 42.6494 42.4805c23.5469 0 42.6348 -19.0205 42.6348 -42.4805zM434.739 176.732l-51.6406 -44.002
c0.558594 -3.51172 0.9375 -7.08008 0.9375 -10.7412c0 -37.458 -30.4844 -67.8301 -68.0762 -67.8301c-32.4297 0 -59.5098 22.5996 -66.3701 52.8389l-127.646 43.1455c-10.0869 -7.62793 -22.626 -12.2109 -36.2656 -12.2109
c-33.1777 0 -60.0781 26.8037 -60.0781 59.8584c0 33.0488 26.9004 59.8418 60.0781 59.8418c28.5293 0 52.3574 -19.8135 58.5068 -46.3613l123.305 -41.6816c12.0117 12.1289 28.5752 19.7324 46.9297 20.1416l18.4678 55.9316
c-0.0507812 1.11035 -0.163086 2.20605 -0.163086 3.32715c0 42.2656 34.4004 76.5293 76.835 76.5293s76.8418 -34.2637 76.8418 -76.5293c0 -33.4844 -21.6123 -61.8691 -51.6611 -72.2578zM123.453 218.275c-7.17773 12.8721 -20.9561 21.5918 -36.7822 21.5918
c-23.2344 0 -42.0703 -18.7646 -42.0703 -41.9072s18.8359 -41.9023 42.0703 -41.9023c4.2959 0 8.43262 0.645508 12.335 1.83789l-19.9893 6.75391c-16.1074 8.59082 -22.1689 28.5645 -13.542 44.6104c8.63184 16.0352 28.6826 22.0674 44.7744 13.4756zM349.635 248.807
c0 -32.8301 26.7158 -59.4434 59.6738 -59.4434c32.957 0 59.6934 26.6133 59.6934 59.4434c0 32.8447 -26.7363 59.458 -59.6934 59.458c-32.958 0 -59.6738 -26.6133 -59.6738 -59.458zM350.812 116.168c0 24.9951 -20.3418 45.2607 -45.4355 45.2607
c-3.51758 0 -6.91699 -0.44043 -10.2041 -1.18848l25.3906 -8.58105c16.0967 -8.60156 22.1484 -28.5693 13.5215 -44.5996c-8.62695 -16.0566 -28.6768 -22.083 -44.7695 -13.4912l-27.3613 9.25195c5.71973 -18.4785 22.999 -31.9082 43.4229 -31.9082
c25.0938 0 45.4355 20.2695 45.4355 45.2559z" />
    <glyph glyph-name="uniF13B" unicode="&#xf13b;" 
d="M25.5996 422.4h460.801v-460.801h-460.801v460.801zM276.48 156.528l100.418 199.312h-44.457l-76.5439 -150.062l-73.6152 150.062h-47.4219l100.659 -199.312v-113.009h40.9609v113.009z" />
    <glyph glyph-name="uniF161" unicode="&#xf161;" 
d="M273.71 12.7998l-70.333 30.1523v328.248s152.853 -25.6816 173.891 -89.3184c21.0479 -63.6416 -11.751 -104.863 -23.2559 -106.071c-32.1221 -3.34863 -44.3027 16.7471 -44.3027 16.7471v102.723l-34.8877 14.5156zM291.988 58.0195l145.091 50.8057l-37.6572 16.748
l-106.881 -25.1133s-0.399414 34.4365 0 34.6055c42.1279 18.3916 88.6123 20.6543 88.6123 20.6543c43.7451 10.04 125.153 -41.3135 100.787 -61.9678c-24.3662 -20.6484 -189.952 -74.2393 -189.952 -74.2393v38.5068zM185.656 60.8105
c0 0 -21.5957 -11.1621 -69.7754 -10.5986c-48.1787 0.563477 -90.8291 13.957 -90.2754 42.9775c0.552734 29.0303 79.749 60.8506 159.498 74.25v-40.75l-84.7314 -22.3281s-14.5049 -18.4424 4.9873 -18.9805c44.3037 -1.23926 80.8555 10.6094 80.8555 10.6094z" />
    <glyph glyph-name="uniF135" unicode="&#xf135;" 
d="M407.04 422.4l-38.7021 -21.7344h-37.5498c13.9053 -11.4844 42.9873 -35.6768 42.9873 -81.6494c0 -44.748 -25.4414 -65.9141 -50.8516 -85.8623c-7.85449 -7.85938 -16.9326 -16.3428 -16.9326 -29.6396c0 -13.3164 9.07812 -20.5566 15.709 -26.0098
l21.8008 -16.9209c26.6338 -22.375 50.8516 -42.9678 50.8516 -84.6543c0 -56.8828 -55.1016 -114.33 -159.222 -114.33c-87.7822 0 -130.171 41.749 -130.16 86.498c0 21.7803 10.915 52.5918 46.627 73.7988c37.5508 22.9688 88.4121 25.9893 115.62 27.792
c-8.46875 10.8896 -18.1602 22.3584 -18.1602 41.1133c0 10.2969 3.05664 16.3428 6.08691 23.5781c-6.70703 -0.588867 -13.3369 -1.20312 -19.3887 -1.20312c-64.1592 0 -100.48 47.7949 -100.48 94.9551c0 27.832 12.6777 58.6445 38.7383 81.0391
c34.4883 28.4062 75.6475 33.2295 108.329 33.2295h124.697zM353.812 52.3311c0 30.833 -19.9727 47.1758 -65.9922 79.8262c-4.86328 0.59375 -7.88965 0.59375 -13.9512 0.59375c-5.4375 0 -38.1191 -1.20312 -63.5596 -9.68164
c-13.3018 -4.84375 -52.0508 -19.3125 -52.0508 -62.2793c0 -42.9111 41.7852 -73.7539 106.543 -73.7539c58.1221 0 89.0107 27.8018 89.0107 65.2949zM305.372 247.045c13.9062 13.9316 15.1396 33.2646 15.1396 44.1709c0 43.5244 -26.0557 111.257 -76.2881 111.257
c-15.749 0 -32.6855 -7.86914 -42.3779 -19.9629c-10.2705 -12.708 -13.3018 -29.0195 -13.3018 -44.748c0 -40.5 23.5977 -107.639 75.6377 -107.639c15.1396 0 31.498 7.26562 41.1904 16.9219z" />
    <glyph glyph-name="uniF181" unicode="&#xf181;" 
d="M369.981 76.8203c15.7949 0 29.3633 -5.68848 40.6377 -16.9619c11.2793 -11.3008 16.9062 -24.8477 16.9062 -40.6582c0 -15.8057 -5.62695 -29.3789 -16.9062 -40.627c-11.2695 -11.3057 -24.8174 -16.9736 -40.6016 -16.9736h-113.675
c-47.3701 0 -87.8848 16.8193 -121.497 50.5498c-33.582 33.6699 -50.3652 74.2354 -50.3652 121.718v230.861c0 16.2812 5.59082 29.9414 16.7832 41.0312c11.1562 11.0547 24.873 16.6406 40.9805 16.6406c15.6719 0 29.1631 -5.66797 40.3193 -16.9736
c11.2031 -11.2842 16.8447 -24.8262 16.8447 -40.6475v-83.6045h161.854c14.6738 0 27.2949 -5.24219 37.7861 -15.6973c10.4805 -10.4814 15.7285 -23.0352 15.7285 -37.7139c0 -14.6279 -5.24316 -27.1982 -15.6982 -37.7148
c-10.4551 -10.4287 -23.04 -15.6816 -37.6523 -15.6816h-162.018v-40.4639c0 -15.8818 5.48438 -29.3223 16.5791 -40.4424c11.0439 -11.1113 24.4834 -16.6406 40.2891 -16.6406h113.705z" />
    <glyph glyph-name="uniF153" unicode="&#xf153;" 
d="M361.431 267.494c-42.501 0 -76.9785 34.3916 -76.9785 76.79c0 42.4043 34.4775 76.8047 76.9785 76.8047c42.502 0 76.9697 -34.4004 76.9697 -76.8047c0 -42.3984 -34.4678 -76.79 -76.9697 -76.79v0zM298.455 193.49v0
c0 -1.74121 -0.143555 -3.4209 -0.271484 -5.13086h0.271484v-133.109h-153.943v133.109h0.261719c-0.123047 1.70996 -0.261719 3.38965 -0.261719 5.13086c0 42.4238 34.4473 76.7891 76.9697 76.7891c42.5156 0 76.9736 -34.3652 76.9736 -76.7891zM221.481 280.54v0
c-31.1611 0 -56.4434 25.2012 -56.4385 56.3096c0 31.084 25.2773 56.3105 56.4385 56.3105c31.1602 0 56.4375 -25.2266 56.4375 -56.3105c0 -31.1084 -25.2725 -56.3096 -56.4375 -56.3096zM466.391 148.798v0c0 -2.35547 -0.194336 -4.66992 -0.347656 -6.96875h0.347656
v-181.535h-209.92v181.54h0.348633c-0.15918 2.29883 -0.348633 4.6084 -0.348633 6.96387c0 57.8555 46.9766 104.734 104.96 104.734c57.9746 0 104.96 -46.8789 104.96 -104.734zM109.527 278.666v0c34.7852 0 62.9707 -28.1133 62.9707 -62.8379
c0 -1.40723 -0.118164 -2.7998 -0.209961 -4.19824h0.214844v-108.907h-125.952v108.912h0.209961c-0.102539 1.39844 -0.209961 2.79102 -0.209961 4.19922c0 34.7188 28.1807 62.832 62.9766 62.832zM109.527 287.037v0c-25.5029 0 -46.1875 20.6338 -46.1875 46.0801
s20.6895 46.0801 46.1875 46.0801c25.4971 0 46.1768 -20.6338 46.1768 -46.0801s-20.6846 -46.0801 -46.1768 -46.0801z" />
    <glyph glyph-name="uniF180" unicode="&#xf180;" 
d="M296.433 45.7832c10.3223 -6.08789 22.0312 -9.13379 35.2764 -9.12891c23.5371 0 46.9404 7.55664 70.2109 22.7324v-72.6982c-19.8301 -9.23145 -37.8213 -15.7393 -53.9336 -19.5176c-16.1338 -3.68652 -33.5361 -5.57129 -52.2246 -5.57129
c-21.248 0 -33.792 2.64746 -50.1045 7.94629c-16.332 5.35547 -30.2539 12.9746 -41.7842 22.7383c-11.5303 9.87109 -19.5117 20.3623 -23.9814 31.4316c-4.44922 11.0801 -6.6875 27.1768 -6.6875 48.2715v161.598h-63.124v65.2588
c18.248 5.83691 39.4238 14.2959 52.4189 25.2725c13.0557 10.998 23.4697 24.1562 31.3643 39.5576c7.87988 15.3799 13.3125 34.9902 16.2617 58.7266h66.1143v-106.573h107.453v-82.2422h-107.458v-118.16c0 -26.7412 -0.363281 -42.1318 2.50391 -49.7305
c2.83594 -7.54102 9.94824 -15.3643 17.6943 -19.9111z" />
    <glyph glyph-name="uniF13E" unicode="&#xf13e;" 
d="M373.894 422.39h31.6816c10.9727 0.696289 27.874 -31.0273 23.2451 -44.5742c-2.87695 -8.91895 -26.4961 -12.959 -31.6826 -19.6201c-8.97559 -11.4277 -5.60059 -46.8477 -5.60059 -70.6611v-190.571c0 -10.6709 -1.3877 -31.9746 1.89941 -35.2979
c3.38379 -3.37402 15.5596 -1.20312 20.418 -2.77441c11.208 -3.60449 24.7764 -25.2725 15.9287 -39.9619c-2.45312 -3.97363 -13.7061 -6.55859 -21.4893 -10.2148c-18.4209 -8.77539 -50.0986 -18.8467 -76.3486 -16.7217
c-14.8691 1.05957 -38.667 22.958 -36.3115 39.04c1.01855 6.92773 6.90234 10.665 14.9092 13.9521c5.37598 2.125 17.7363 0.921875 22.3135 5.54492c5.88281 5.77051 1.35156 30.0234 0.890625 43.6172c-0.178711 8.30469 0.189453 14.085 0 24.2432
c0 7.25488 0.737305 20.1016 -0.890625 22.3643c-4.02441 5.17676 -38.293 1.01855 -45.6094 0c-34.7285 -5.12988 -53.2891 -7.61816 -82.0068 -16.7217c-8.6582 -2.82129 -28.749 -6.24121 -34.5449 -15.0225c-5.96484 -9.14453 -1.15137 -39.8691 0 -53.8672
c0.563477 -6.47656 -1.84277 -18.8516 1.02441 -23.1934c3.79883 -6.05273 19.4971 -3.31836 23.1475 -4.61328c9.02637 -3.14355 22.2256 -17.0039 20.6084 -30.7305c-2.92383 -23.7412 -60.5703 -32.1533 -88.5869 -34.417
c-10.7871 -0.783203 -14.7812 -1.05957 -22.3643 0.830078c-12.3184 3.46582 -28.293 20.1416 -26.9971 32.6143c1.06445 10.127 15.3242 16.041 25.2822 19.5889c3.1543 1.15723 9.29785 1.57227 11.0127 3.70215c3.7998 4.53125 1.49023 23.7871 0 35.2461
c-4.12109 34.1445 -4.99707 75.4482 -5.55469 110.643c-0.547852 41.8613 -2.78027 71.0098 -2.78027 114.442c0 12.2012 1.16699 32.2002 -1.80762 36.2393c-3.51758 4.36719 -14.7656 3.58398 -21.4424 6.44629c-11.6221 4.99707 -17.4082 12.4316 -23.3779 26.9824
v8.32031c9.99902 19.543 35.2412 23.6494 62.4229 28.8818c38.4258 7.34668 75.6533 14.4531 86.7227 -17.6748c2.23242 -6.39941 3.61523 -17.208 0 -23.1934c-6.71191 -11.1055 -32.6445 -8.7041 -38.2051 -17.7666
c-2.41211 -3.73242 -1.94043 -17.6484 -1.94043 -29.7314c0 -36.2393 -4.58301 -61.5166 -1.80762 -98.4932c0.369141 -5.40234 2.12988 -22.3545 5.65234 -24.1416c5.50977 -2.86133 15.417 1.78711 20.4648 2.69824c36.582 7.93164 58.3477 13.4766 98.7695 17.6953
c10.4199 1.17773 35.748 1.37207 40.9863 5.57031c7.67969 6.4209 2.9541 25.3184 1.80664 34.4219c-3.19922 27.8115 -2.83105 47.5801 0 74.3838c1.15234 10.2041 4.39844 29.8896 -0.890625 35.3584c-3.36914 3.44531 -16.5635 3.90625 -20.5107 5.59082
c-14.0752 5.89355 -30.9248 20.4189 -25.0977 40.9141c1.48438 5.49414 9.92188 9.92285 15.749 12.9277c20.9561 10.9365 45.7725 12.6006 70.9121 17.7051z" />
    <glyph glyph-name="uniF187" unicode="&#xf187;" 
d="M196.291 363.52l61.1221 -208.398l61.1377 208.398h44.252h104.991v-21.3701l-54.1543 -107.786c21.8984 -7.06641 42.6084 -19.917 53.8525 -38.4824c11.2383 -18.6006 18.9082 -40.458 18.9082 -65.5312c0 -31.0059 -7.19922 -57.041 -23.6494 -78.1875
c-16.4307 -21.1143 -37.1924 -31.6816 -63.3398 -31.6816c-19.6816 0 -36.5312 6.27637 -51.1592 18.7949c-14.6172 12.5488 -25.2822 29.5117 -32.3018 50.9541l34.6006 14.3516c5.06934 -12.9688 11.7715 -23.1572 20.0811 -30.6436
c8.26855 -7.46484 18.0479 -11.166 29.291 -11.166c11.8125 0 21.8115 6.60938 29.9521 19.8398c8.14062 13.2656 12.2314 29.1738 12.2314 47.7793c0 20.5576 -4.3877 42.7422 -13.0811 53.9854c-10.1123 13.2715 -25.999 26.1172 -47.6416 26.1172h-29.1025v7.81348
l71.25 106.962h-71.2295l-4.0498 -0.333008l-86.6299 -286.597h-4.20898l-63.2529 212.208l-63.2012 -212.214h-4.22852l-101.131 325.187h44.2422l61.123 -208.731l41.2979 140.533l-20.2344 68.1982h44.2627z" />
    <glyph glyph-name="uniF195" unicode="&#xf195;" 
d="M95.2168 58.3838c-1.61328 0.209961 -4.42383 1.48438 -5.59668 7.8125c0.0205078 2.96973 0.0615234 5.75 0.0615234 6.2002v37.6992c0 0 0.547852 6.45117 3.8916 10.3984c0 0.00976562 0 0.00976562 0.00976562 0.015625
c60.0225 70.8447 120.049 141.686 180.076 212.525c-92.2422 -18.4883 -115.86 2.83691 -120.991 9.92285c-0.117188 0.148438 -0.209961 0.322266 -0.327148 0.481445c-0.681641 1.01367 -0.932617 1.64844 -0.932617 1.64844l0.0205078 0.00488281
c-2.2627 5.22754 -1.75586 13.9111 -1.34082 18.0283c1.82715 18.4619 11.8477 35.7422 22.6201 50.4473c1.63281 2.2168 3.46094 4.29004 5.19141 6.44531c2.18164 1.85938 6.31836 3.91699 12.4824 0.727539c4.25488 -2.33008 8.78613 -4.64355 9.55371 -4.95605
c21.4023 -8.51465 45.3994 -10.6904 68.1992 -11.7305c40.9854 -1.87891 82.293 2.38672 122.501 10.5625l0.015625 -0.0458984s9.38965 2.1709 8.33496 -6.88086c-1.51074 -13.0459 -3.02051 -26.0967 -4.52637 -39.1475
c-0.44043 -3.79395 -9.17969 -10.8594 -11.5557 -13.6045c-24.791 -28.7432 -49.5771 -57.4766 -74.373 -86.2148c-29.1328 -33.7666 -58.2656 -67.5332 -87.3936 -101.315c-9.26172 -10.7314 -18.5186 -21.4629 -27.7812 -32.1895
c-6.72754 -7.8125 -7.0498 -8.2373 -7.0498 -19.3125c24.5146 1.11133 48.9268 -9.625 69.7188 -22.6143v0.0146484s46.3516 -30.1826 75.4795 -39.9004c30.9551 -8.47852 64.7266 -8.98047 88.9395 10.5371c9.04688 -42.6133 -12.7998 -108.329 -67.1494 -101.903
c-26.9971 3.19531 -53.3193 17.4238 -76.375 30.9766c-24.3145 14.2998 -44.9434 34.8516 -69.9033 47.6875c-32.4863 16.7168 -62.4688 17.6797 -97.6377 17.6797h-14.1621z" />
    <glyph glyph-name="uniF16C" unicode="&#xf16c;" 
d="M118.282 56.3203c-9.49219 0 -17.208 7.74609 -17.208 17.2646v140.615l-75.4746 0.0361328l102.549 112.251l102.59 -112.287h-75.5771v-103.604h81.1523l53.1768 -54.2764h-171.208zM486.4 169.759l-102.549 -112.267l-102.579 112.267l75.5303 0.0410156v103.604
h-81.1416l-53.1406 54.2764h171.172c9.4873 0 17.208 -7.74609 17.208 -17.2646v-140.656h75.5z" />
    <glyph glyph-name="uniF15E" unicode="&#xf15e;" 
d="M296.008 163.655l180.157 -202.056l-204.441 180.772l-86.5947 -88.6016l13.8496 77.9775l-117.801 145.32l-65.8125 -3.53711l145.525 148.869v-56.7197l138.558 -127.601l86.5996 21.248z" />
    <glyph glyph-name="uniF162" unicode="&#xf162;" 
d="M163.087 178.76c1.25977 -16.5635 5.03809 -56.3252 13.3584 -78.3818c-10.209 1.83789 -21.4326 4.05469 -32.292 6.3584c-11.7705 2.49902 -23.71 3.90137 -31.4463 9.85645c-7.89062 6.07715 -15.3145 16.4355 -15.417 30.7969
c-0.148438 20.29 15.043 36.9971 34.5293 38.7939c11.7246 1.0957 20.9307 -3.53809 31.2676 -7.42383zM388.367 366.019c18.7236 -31.1758 30.0391 -74.3984 25.2676 -123.786c-6.14941 -63.7646 -35.1904 -118.508 -80.1689 -145.956
c-14.7305 -9.00098 -32.3379 -15.8818 -53.9395 -15.1035c-21.1816 56.3145 -19.3174 75.8271 -19.3174 75.8271c12.6768 -2.92383 26.4287 -3.40039 38.7275 2.71289c15.6924 7.79297 24.0488 22.3438 31.4619 39.4092c13.7676 31.7793 20.2246 80.3789 7.39355 119.47
c-4.87402 14.833 -14.8223 35.3896 -34.5342 35.7275c-12.4727 0.199219 -24.3203 -10.373 -30.2188 -17.8584c-20.8174 -26.4805 -28.3594 -64.835 -28.3594 -110.848c0 -11.3672 0.506836 -22.5947 1.44922 -33.6182h-0.0107422
c0.0107422 -0.0771484 0.0253906 -0.148438 0.0253906 -0.230469c1.46973 -16.9883 3.98926 -33.4541 7.34766 -49.0703c14.2031 -72.6377 35.9834 -98.2891 35.9834 -98.2891h0.015625c1.2793 -2.44141 2.59082 -4.86816 3.90625 -7.23926
c2.8623 -5.13574 6.21582 -10.9619 9.86621 -16.0098c6.3125 -8.71973 11.4688 -12.2734 11.709 -25.2471c0.507812 -26.3838 -28.1387 -42.957 -53.0176 -29.5684c-6.58887 3.55371 -14.2432 13.1943 -20.9707 20.9463c-19.5078 22.4971 -35.0264 50.0225 -46.2393 79.4521
c-11.8574 31.083 -18.2881 65.3213 -22.8301 102.83c-1.5459 12.8867 -1.50977 25.9375 -1.84766 40.0381c-0.629883 26.752 -0.209961 52.1523 4.94043 77.5938c9.14453 45.0615 29.834 81.8838 59.8164 107.766c15.0332 12.9746 33.8389 25.0732 58.5781 27.1006
c48.2559 3.92676 77.7373 -27.3721 94.9658 -56.0488z" />
    <glyph glyph-name="uniF18E" unicode="&#xf18e;" 
d="M309.059 -38.4004l-103.05 180.649l159.938 280.151h107.652l-159.938 -280.151l103.061 -180.649h-107.663zM139.889 100.931h-101.488l79.959 131.641l-59.9707 105.625h101.493l59.9658 -105.625z" />
    <glyph glyph-name="uniF189" unicode="&#xf189;" 
d="M486.077 350.72l0.328125 -1.17188v-9.15527c0 -2.46777 -0.993164 -3.74219 -3.52246 -3.74219c-12.4932 -0.583984 -21.4014 -3.57422 -27.3867 -8.86328c-6.03223 -5.35547 -10.7119 -12.7275 -14.0596 -22.2969c0 0 -77.502 -194.98 -104.039 -259.769
c-10.1426 -21.2734 -20.1416 -19.3076 -28.9072 0.59375c-11.0127 24.8682 -33.8428 79.7539 -50.6113 120.325c-17.9248 -40.668 -42.4961 -95.7646 -54.6768 -120.586c-11.8213 -22.6309 -21.6064 -19.6611 -29.3525 -0.599609
c-26.9521 69.8682 -82.3242 192.522 -108.37 261.253c-4.8125 12.6621 -8.52441 20.7881 -11.9443 24.0029c-3.43066 3.19531 -10.752 5.08984 -21.6533 5.75c-3.98828 0.455078 -6.28223 1.52539 -6.28223 3.24609v9.58496l2.91406 0.941406
c17.7246 0.107422 105.481 0 105.481 0l4.24512 -0.941406v-9.10938c0 -2.51367 -4.71582 -3.72168 -7.59863 -3.72168l-14.085 -0.506836c-9.25684 -0.410156 -13.8857 -3.4668 -13.8857 -9.1084c0 -2.63672 0.947266 -6.91699 3.12891 -12.6367
c20.7158 -55.5361 92.3496 -221.521 92.3496 -221.521l2.63672 -0.742188l46.1621 101.187c-5.6377 13.6699 -9.24219 22.4766 -9.24219 22.4766l-31.7646 68.5615s-6.1543 13.7266 -8.2373 18.2783c-13.9375 30.377 -13.6914 32 -27.7969 34.0283
c-3.94238 0.59375 -6.06738 1.14648 -6.06738 3.30176v9.60059l0.348633 0.936523c25.4619 0.015625 81.2695 0.015625 81.2695 0.015625l0.301758 -0.783203v-9.5752c0 -2.17578 0.451172 -3.32227 -2.44727 -3.32227l-4.04492 -0.9375
c-15.0625 -1.26465 -12.5898 -8.03809 -2.60059 -29.9209l30.4688 -68.4854l33.7158 73.8311c5.63672 13.5166 4.55176 16.875 2.22168 20.0234c-1.32617 1.75684 -5.68359 4.55176 -15.4268 5.0127l-3.56836 0.456055c-0.967773 0 -1.34668 0.374023 -2.24805 1.10059
c-0.844727 0.670898 -0.230469 1.55664 -0.230469 2.66797v9.1084l-0.0146484 0.936523c23.833 0.179688 76.1797 0 76.1797 0l0.640625 -0.977539v-9.10352c0 -2.5293 -0.978516 -3.77832 -3.52246 -3.77832c-12.4678 -0.629883 -14.6943 -1.99219 -19.2666 -9.20117
c-2.50391 -3.95215 -7.43457 -12.4365 -12.5293 -21.9287l-43.7861 -89.999s-0.46582 -1.01367 -1.24414 -2.82129l53.4893 -120.31l3.21484 -0.958008l84.1934 219.797c2.91895 8.85254 2.30371 15.1494 -1.43848 18.8623
c-3.81445 3.58398 -6.79395 5.70801 -16.584 6.16895l-8.63184 0.430664c-0.958008 0 -3.28711 0.393555 -4.14746 1.12109c-0.901367 0.670898 -4.15234 1.57129 -4.15234 2.64648v9.15527l6.81445 1.17188h95.2627z" />
    <glyph glyph-name="uniF13F" unicode="&#xf13f;" 
d="M477.384 168.592c9.93262 -18.1816 11.2539 -37.0127 5.93359 -56.5049c-5.94922 -20.127 -17.8682 -35.7529 -35.7422 -45.4805c-18.5293 -9.7334 -37.084 -10.4043 -58.2559 -3.8916c-7.93066 1.93066 -14.5664 5.18652 -21.1709 9.69727
c3.30273 -16.21 3.30273 -30.4893 0 -44.7744c-3.96777 -13.6553 -11.9092 -24.6885 -23.1631 -31.1963c-11.9189 -7.8125 -25.1543 -8.44238 -38.3848 -4.55664c-13.2549 3.25684 -25.1699 12.3594 -37.7598 25.9736l-0.639648 -3.88086
c-5.97559 -19.4658 -17.8691 -35.082 -36.4033 -44.8203c-19.2207 -9.72852 -39.0908 -10.3984 -58.916 -5.22266c-11.9395 3.26172 -21.8525 7.81348 -29.793 14.9609c-5.2998 5.8418 -10.5938 12.3232 -15.2324 19.5068
c-9.9375 18.8369 -11.9092 37.0381 -5.27832 57.7949l3.28125 8.44238l11.9297 19.502c-16.5322 -5.22168 -31.7637 -5.22168 -46.3359 -1.96094c-7.93555 0.661133 -14.5508 3.92285 -19.8496 8.43848c-5.2998 3.29199 -8.60156 7.80273 -11.9199 12.9893
c-6.61523 11.0645 -7.93555 22.7637 -4.63379 34.4521c3.31348 9.73828 8.5918 19.4717 17.874 27.2793l9.91309 8.46875l-4.61914 1.29492c-11.9141 1.94629 -21.8467 6.49805 -29.8027 14.2852c-5.28418 3.90625 -11.2383 9.75391 -15.2168 16.9014
c-9.2627 16.2607 -9.93848 33.7812 -2.65723 51.9727c7.95605 18.8369 19.8652 32.4922 39.0811 42.2305c18.5293 9.74316 37.0586 12.3545 56.9287 7.79785l15.8828 -5.22266l-4.60352 6.51758c-9.93262 18.1709 -13.2402 36.3721 -9.92188 55.2139
c3.31738 18.1709 11.335 31.2012 25.2207 39.6338c12.585 6.49805 24.5762 7.79785 39.1475 4.55664c16.5635 -4.55664 30.0029 -14.3047 40.6016 -30.5557l7.05078 -11.6738l3.49121 -4.55664l2.33984 4.55664v1.2959c0 19.4658 17.5059 34.4111 36.0703 44.1748
c18.5352 9.74902 35.999 11.6943 56.5098 6.4873c19.8711 -5.19141 34.4268 -14.9297 44.3652 -31.1914l1.97559 -3.22559c11.2539 -18.8564 13.1895 -38.9834 6.58496 -59.7861l-7.37305 -16.2305l21.7441 4.55664c9.92285 0.629883 20.9004 0.629883 30.8584 -1.31543
c16.5479 -4.55176 34.5449 -12.9844 34.5449 -25.999v-1.2959c0 -11.6934 8.46875 -23.3672 3.83496 -37.6729c-6.63086 -17.541 -20.6641 -31.1758 -41.1748 -40.9238c7.25977 -3.25684 15.2109 -6.49219 21.8311 -11.0488
c7.96191 -5.20215 13.2354 -12.9902 18.5352 -20.7822zM381.399 277.089l-66.8525 -54.5322l-2.66211 -3.26172l1.32129 -1.96094l1.34082 -4.55664l81.4287 9.77344c7.94141 1.27539 15.2119 2.59082 21.832 5.82129c16.5322 7.14258 26.4805 16.2363 31.1035 27.9297
l1.32129 6.5127l-2.6416 8.42773c-3.95312 7.81348 -11.9355 12.9893 -23.1475 14.2852c-11.9404 1.31543 -23.1738 0 -35.1133 -5.17676zM268.846 358.953l-0.639648 -6.49219l0.639648 -25.999l6.63086 -73.4062c6.64062 -3.24023 13.2607 -6.49707 19.21 -11.0439
l59.582 71.46c3.96289 5.85254 7.28027 12.3604 9.92188 19.5078l1.97168 14.2793c0 8.44336 -1.97168 16.2412 -5.27344 22.7432c-5.98047 11.0439 -15.8926 18.1865 -29.8145 21.4424c-12.5693 4.55176 -25.8047 3.24121 -37.7236 -3.25586
c-11.9141 -6.50293 -21.1973 -16.2461 -24.5049 -29.2354zM155.688 357.013c-1.34082 -11.6992 1.95605 -22.7432 7.25586 -34.4424l3.30176 -6.49219l58.9365 -63.0322l9.91211 3.24121l-13.2295 76.6816c-1.3418 7.78809 -4.64453 14.2803 -7.96191 20.7822
c-7.91504 16.2461 -17.8535 24.6787 -29.7832 27.9346c-5.2832 2.61133 -11.2383 2.61133 -15.2168 -0.644531c-7.96094 -4.54199 -12.5791 -12.3398 -13.2148 -24.0283zM58.3574 219.284c5.28418 -9.77344 13.2402 -14.9502 25.1494 -16.9062l6.60547 -1.29492
l95.3242 11.6885c1.99609 6.51855 5.31445 12.9902 10.6084 19.502l-58.2559 41.5801l-17.874 7.14746c-13.25 3.22559 -25.1436 1.29492 -37.084 -5.20703c-12.5537 -5.20215 -21.1553 -14.9297 -25.7842 -27.2949c-3.97852 -9.74805 -3.97852 -19.4863 1.31055 -29.2148z
M245.76 27.6221v25.9844c0 25.3027 -6.98828 48.7324 -8.29395 70.7988c-7.2959 0.666016 -15.5859 3.91699 -22.2061 7.17871l-55.582 -64.9883c-5.28906 -5.18652 -8.59668 -11.6943 -9.93848 -18.207l-3.20996 -14.9141c0 -7.80762 2.73438 -15.6211 6.02637 -22.0928
c5.29883 -10.4043 15.4209 -18.2021 28.6973 -21.4629c11.8838 -3.2207 24.9092 -1.92578 36.833 4.58691c11.9092 5.17188 20.6953 14.915 25.334 26.6035zM220.523 157.521c7.95703 -8.44727 18.5498 -12.958 31.125 -12.9531c11.9189 0 21.8516 4.51074 30.4736 12.9531
c9.23145 7.81348 13.2305 18.873 13.2305 30.5615c0 11.6992 -3.99902 21.4326 -13.2305 30.541c-7.30078 7.13184 -18.5547 11.6885 -30.4736 11.6885c-12.5752 0 -23.168 -4.55078 -31.125 -11.6885c-8.60156 -9.1084 -13.2148 -18.8418 -13.2148 -30.541
c0 -11.6885 4.61328 -22.7529 13.2148 -30.5615zM343.015 43.8633c1.32031 12.3232 -2.00195 22.7275 -7.95117 33.7871l-3.30273 6.48145l-17.2139 20.8027l-27.8066 27.8984l-8.62207 -4.51074l-11.2334 -3.92188l9.91309 -56.5146l7.96094 -21.4316
c7.27051 -15.6162 17.209 -25.3496 29.7832 -28.6113c5.29883 -0.619141 10.5986 -0.619141 15.2119 2.59668c7.96094 3.25586 11.9395 11.6992 13.2607 23.4238zM456.868 119.88l1.97559 12.9482c0 11.0693 -3.31738 20.8027 -9.9375 27.9805
c-5.26855 9.7334 -14.5664 15.5801 -24.4629 18.8418l-6.6416 0.629883l-26.4697 -0.629883l-74.793 -6.50195l-1.99707 -7.81836l-4.63867 -9.73828l69.5146 -56.5146c4.62305 -5.1709 9.91211 -8.46875 17.874 -10.3936
c13.2139 -4.55176 25.1543 -3.25098 37.0479 3.26172c11.2695 5.17578 19.21 14.9092 22.5283 27.9346z" />
    <glyph glyph-name="uniF12A" unicode="&#xf12a;" 
d="M486.4 191.979c0 -56.54 -46.2236 -102.38 -103.271 -102.38c-57.0322 0 -103.266 45.8398 -103.266 102.38c0 56.5713 46.2334 102.421 103.266 102.421c57.0469 0 103.271 -45.8496 103.271 -102.421zM128.865 294.4c57.0312 0 103.266 -45.8496 103.266 -102.421
c0 -56.54 -46.2344 -102.38 -103.266 -102.38s-103.266 45.8398 -103.266 102.38c0 56.5713 46.2344 102.421 103.266 102.421z" />
    <glyph glyph-name="uniF16B" unicode="&#xf16b;" 
d="M355.062 174.858c1.18848 -3.04102 1.73047 -6.17969 1.73047 -9.29785c0 -6.28223 -2.1709 -12.3809 -5.81055 -17.3623c-3.59961 -4.91504 -8.69922 -8.73926 -14.7002 -10.4189h0.0107422c-0.0517578 -0.0205078 -0.102539 -0.0205078 -0.12793 -0.0361328
c-0.0205078 0 -0.0615234 -0.0205078 -0.0820312 -0.0205078c-2.81055 -0.961914 -5.68848 -1.41309 -8.55078 -1.41309c-6.70215 0 -13.2812 2.41699 -18.5391 6.52832c-5.22266 4.10059 -9.16992 9.98926 -10.4092 16.9775h-0.00976562
c0 0.0205078 0 0.0410156 -0.0107422 0.0722656c0 0.0205078 0 0.0410156 -0.0205078 0.0712891h0.0205078c-0.388672 1.80273 -0.588867 3.59961 -0.588867 5.38086c0 6.05176 2.05859 11.8584 5.45801 16.6611c3.38965 4.77148 8.17188 8.56055 13.7627 10.5107
c0.0205078 0 0.0410156 0.0107422 0.0410156 0.0107422c0.0302734 0 0.0302734 0.0253906 0.0507812 0.0253906c3.16992 1.17285 6.50781 1.75586 9.81055 1.75586c6.02051 0 11.9502 -1.82227 16.9521 -5.16113c4.94043 -3.28613 8.94922 -8.09961 10.9619 -14.085
c0.0205078 -0.0351562 0.0205078 -0.0712891 0.0410156 -0.107422c0 -0.0410156 0.0205078 -0.0615234 0.0410156 -0.0917969h-0.03125zM336.64 100.629c2.33008 -1.52637 4.32129 -3.67188 5.53516 -6.27734c0.829102 -1.73633 1.33105 -3.66602 1.33105 -5.7041
c0 -1.06445 -0.137695 -2.13965 -0.419922 -3.23535v-0.0107422c-0.680664 -2.48828 -1.88867 -4.59277 -3.38965 -6.29785c-1.5 -1.71484 -3.24609 -3.03027 -5.03809 -4.17188c-3.61914 -2.23828 -7.45996 -3.77344 -10.3467 -5.47852l-0.108398 -0.0615234
l-0.117188 -0.0722656c-21.9189 -10.3115 -46.5303 -15.9736 -70.999 -15.9736c-27.1357 -0.0263672 -54.1699 6.98828 -77.1279 22.4766c-2.33984 1.25977 -4.12695 3.13867 -5.28906 5.28906c-1.22363 2.26758 -1.8125 4.77148 -1.8125 7.27051
c0 2.76953 0.72168 5.5498 2.19141 7.94043c1.4082 2.31934 3.59961 4.27539 6.40039 5.3457h-0.0107422c0.0927734 0.0361328 0.179688 0.0712891 0.271484 0.107422c1.78223 0.808594 3.58887 1.19824 5.30957 1.19824c2.0791 0 4.01953 -0.522461 5.77051 -1.26953
c1.77148 -0.722656 3.36914 -1.71094 4.89941 -2.69824c3.01074 -2.00195 5.77051 -4.11133 8.19238 -5.09961l0.0820312 -0.03125l0.0820312 -0.0410156c16.0605 -7.88965 33.792 -11.6533 51.6299 -11.6533c23.7715 0 47.7178 6.65625 68.0801 18.8115v0
c2.15039 1.42871 4.57227 2.09375 6.90234 2.09375c2.89258 0 5.62109 -0.926758 7.98145 -2.45703zM175.452 137.871c-0.0410156 0.0205078 -0.0615234 0.03125 -0.107422 0.03125c-5.94922 1.79199 -10.9053 5.63184 -14.4082 10.5166
c-3.53223 4.9707 -5.58008 11.0078 -5.58008 17.2129c0 2.82617 0.429688 5.68848 1.35156 8.45801c0 0 0.00976562 0.0205078 0.00976562 0.0410156v0.0107422v0c3.21094 10.1172 11.9092 17.4746 21.8213 19.5479h0.03125
c0.0302734 0 0.0507812 0.0107422 0.0820312 0.0107422c1.99121 0.46582 4.0293 0.701172 6.03125 0.701172c7.48535 0 14.7197 -3.07227 20.168 -8.09473c5.42676 -5.0127 9.12891 -12.1035 9.12891 -20.0957c0 -0.405273 -0.0107422 -0.798828 -0.03125 -1.16309
c0.0107422 -0.245117 0.0107422 -0.459961 0.0107422 -0.669922c0 -8.05371 -3.75293 -15.1201 -9.23145 -20.1113c-5.48926 -4.98242 -12.7383 -8.0332 -20.1982 -8.0332c-2.99023 0 -6.01172 0.527344 -8.93945 1.59668
c-0.046875 0.0263672 -0.0976562 0.0410156 -0.138672 0.0410156zM486.308 210.181v-0.0400391c0.0722656 -1.00879 0.0927734 -2.0127 0.0927734 -3.01074c0 -11.1924 -3.58984 -21.9551 -9.58008 -31.084c-5.59082 -8.54492 -13.3018 -15.6973 -22.1797 -20.5459
c0.568359 -4.45508 0.901367 -8.94531 0.901367 -13.4199c-0.0107422 -24.0996 -8.32031 -47.79 -22.7891 -66.7754v-0.00976562h-0.03125c-26.752 -35.584 -67.8291 -56.5713 -109.312 -67.1543h-0.0107422l-0.0302734 -0.0253906
c-22.1182 -5.37109 -44.9277 -8.11523 -67.7324 -8.11523c-33.9922 0 -67.958 6.12891 -99.6504 18.8418l-0.0107422 0.0302734h-0.0302734c-32.8604 13.543 -64.1689 35.0723 -83.3691 66.6162c-10.332 16.835 -16 36.5781 -16 56.418
c0 4.49023 0.301758 8.98047 0.901367 13.4297c-8.64844 4.86914 -16.1387 11.7754 -21.6992 20.0186c-5.93848 8.8584 -9.70215 19.2314 -10.1787 30.1982v0.0410156v0.0410156v0.0869141c0.0107422 15.3604 6.68164 29.9111 17.0498 40.6377
c10.3682 10.7256 24.5303 17.7354 39.7207 17.7354h0.629883c1.59277 0.107422 3.2002 0.168945 4.80762 0.168945c7.62891 0 15.2783 -1.23438 22.5391 -4.01953l0.0400391 -0.0302734l0.0410156 -0.0107422c6.20117 -2.61035 12.3604 -5.75977 17.8486 -10.1221
c1.78223 0.931641 3.72266 1.98145 5.89844 2.81152c33.2803 19.7061 71.9619 27.3096 109.66 29.501c0.327148 18.6777 2.62109 38.2256 11.7295 55.3369c7.58789 14.2129 20.752 25.2822 36.4287 29.1172l0.0615234 0.03125l0.0820312 0.00976562
c5.96973 1.15723 11.9912 1.68945 17.9717 1.68945c15.9277 0 31.6719 -3.77344 46.4023 -9.66113c6.51758 9.84082 15.8311 17.5205 26.752 21.8271l0.102539 0.0605469l0.102539 0.0410156c6.41016 1.99707 13.1787 3.16406 19.9775 3.16406
c7.16797 0 14.3926 -1.31055 21.1611 -4.33594v0.0253906c0.0107422 -0.0253906 0.0205078 -0.0253906 0.0205078 -0.0253906c0.0517578 -0.015625 0.0927734 -0.0458984 0.12793 -0.0458984c9.70801 -3.73828 17.9199 -10.6445 23.7422 -19.2314
c5.83105 -8.62207 9.26172 -18.9492 9.26172 -29.5674c0 -1.95605 -0.107422 -3.91699 -0.337891 -5.87793l-0.0205078 -0.0410156c0 -0.03125 0 -0.0712891 -0.0107422 -0.102539c-1.1416 -13.7217 -8.08887 -25.7637 -17.9297 -34.3496
c-9.90234 -8.62207 -22.7227 -13.8291 -35.8809 -13.8291c-2.10938 0 -4.23926 0.117188 -6.35938 0.399414c-13.0508 0.998047 -25.2207 7.31055 -34.1602 16.7061c-8.9707 9.37988 -14.751 21.9141 -14.751 35.4404c0 0.655273 0.0615234 1.32617 0.0820312 1.97656
c-12.252 5.45312 -25.2627 9.97852 -38.1904 9.96875c-1.86914 0 -3.7373 -0.102539 -5.61133 -0.291992h-0.0205078c-9.68164 -0.931641 -18.6777 -7.03516 -23.04 -15.8105v-0.00976562v-0.03125c-6.62012 -12.8916 -7.94141 -27.96 -8.14062 -42.9209
c37.1094 -2.42188 74.4395 -11.3252 107.182 -30.1465h0.0517578l0.470703 -0.276367c0.619141 -0.369141 1.77148 -0.999023 2.81055 -1.55176c2.24805 1.82324 4.62891 3.70215 7.34277 5.32031c9.92773 6.60938 21.6885 9.89648 33.4482 9.89648
c5.22266 0 10.4502 -0.666016 15.5195 -1.96582h0.0205078l0.209961 -0.0615234c0.0712891 -0.0107422 0.12793 -0.0361328 0.188477 -0.0361328v-0.00976562c11.9814 -3.04688 22.8203 -9.92773 30.9814 -19.2051c8.15137 -9.29297 13.6396 -21.0488 14.71 -33.8125
v-0.0263672h-0.015625zM377.001 331.628c0 -0.501953 0.00976562 -1.01953 0.0615234 -1.54199v-0.0302734v-0.0615234c0.240234 -6.44629 3.28223 -12.4463 7.91016 -16.8809c4.64941 -4.43359 10.8184 -7.17773 17.0801 -7.20312h0.0820312h0.0820312
c0.451172 -0.0361328 0.911133 -0.0361328 1.35156 -0.0361328c6.31836 -0.0107422 12.5908 2.71387 17.3008 7.13184c4.7207 4.43945 7.82812 10.4756 8.0791 16.9785l0.0107422 0.0302734v0.0410156c0.0410156 0.49707 0.0615234 0.967773 0.0615234 1.47461
c0 6.69141 -3.12891 13.0713 -8.02832 17.7969c-4.87988 4.7207 -11.4482 7.64453 -17.9307 7.62891c-2.08887 0 -4.16211 -0.286133 -6.18945 -0.916016l-0.0722656 -0.00585938l-0.0615234 -0.0253906c-5.33984 -1.3877 -10.3418 -4.67969 -13.9414 -9.05176
c-3.60449 -4.35254 -5.7959 -9.7334 -5.7959 -15.3291zM103.07 232.161c-4.96094 2.30957 -10.0908 3.95801 -15.1602 3.9375c-0.849609 0 -1.70996 -0.0517578 -2.55957 -0.143555h-0.118164l-0.117188 -0.015625c-7.28125 -0.199219 -14.6279 -3.37402 -20.1426 -8.46289
c-5.51953 -5.06934 -9.16992 -11.9141 -9.45117 -19.4609v-0.0722656l-0.0107422 -0.0615234c-0.0507812 -0.608398 -0.0712891 -1.21777 -0.0712891 -1.80176c0 -4.6543 1.42871 -9.1543 3.85059 -13.251c1.79199 -3.0459 4.1416 -5.83105 6.79883 -8.24805
c8.50977 18.627 21.8008 34.4375 36.9814 47.5801zM426.348 141.035c0 16.6045 -5.99023 33.2852 -15.6875 46.7148c-19.3389 26.9111 -49.3418 44.4629 -80.5479 54.2471l-0.220703 0.0761719c-5.99023 1.83887 -12.042 3.4668 -18.1396 4.85938
c-18.2432 4.15234 -36.9414 6.2207 -55.6191 6.2207c-25.0879 0 -50.1709 -3.71191 -74.1885 -11.1211c-31.2012 -9.90137 -61.3018 -27.3301 -80.5986 -54.3281v-0.0205078c-9.7793 -13.4805 -15.5088 -30.2178 -15.5088 -46.8838
c0 -6.13379 0.767578 -12.2676 2.39062 -18.2422l0.0205078 -0.0107422c3.5127 -13.3936 10.3789 -25.3535 19.2715 -35.7734c8.88867 -10.4395 19.7891 -19.3428 31.2578 -26.6084c2.54004 -1.57129 5.08984 -3.07227 7.70117 -4.54102
c33.3105 -18.5908 71.6689 -26.7422 109.752 -26.7422c6.44043 0 12.918 0.225586 19.3174 0.691406c38.3486 3.16406 76.8613 14.4844 107.991 37.6162l0.0107422 0.0263672c9.91211 7.32129 19.0918 16.1895 26.3467 26.2754
c7.29102 10.0859 12.6318 21.3711 15.002 33.6182v0.0351562l0.0107422 0.0107422c0.972656 4.57715 1.43848 9.2207 1.43848 13.8799zM456.622 207.119c-0.00976562 4.0293 -0.931641 8.04395 -2.94922 11.7861l-0.0507812 0.046875l-0.0205078 0.0605469
c-2.69824 5.56055 -6.9375 9.75879 -12.0527 12.6211c-5.10938 2.88281 -11.0898 4.34668 -17.0908 4.34668c-5.42188 0 -10.8184 -1.21289 -15.6104 -3.61914c15.2314 -13.2256 28.5898 -29.1182 37.2275 -47.8213c2.78027 2.41699 5.15039 5.37598 6.92188 8.66309
c2.31445 4.30566 3.625 9.14453 3.625 13.916z" />
    <glyph glyph-name="uniF151" unicode="&#xf151;" 
d="M25.6357 149.392c7.63379 71.1426 66.7646 96.3066 75.4229 99.6094c-14.6943 11.6221 -24.1055 29.4248 -24.1055 49.377c0 35.0312 28.9746 63.4219 64.7275 63.4219c35.7373 0 64.7324 -28.3906 64.7324 -63.4219c0 -19.7627 -9.23145 -37.417 -23.6953 -49.0547
c12.1035 -4.26953 23.9971 -10.6543 34.6309 -18.9844c-28.1338 -14.0654 -90.0752 -54.6055 -99.4707 -142.105c-0.015625 -0.743164 -0.015625 -1.44922 -0.015625 -2.16602c-54.4199 3.41504 -59.9756 18.166 -59.9756 18.166v0.00976562
c-3.46094 3.3584 -6.14941 7.47559 -7.78711 12.626c-7.93164 1.82812 -12.9131 6.59961 -12.9131 6.59961s-12.1758 4.53125 -11.5508 25.9229zM252.539 228.091c-21.7861 17.2285 -35.7227 43.5811 -35.7227 73.1494c0 51.8965 42.9414 93.9727 95.9082 93.9727
c52.9658 0 95.9072 -42.0713 95.9072 -93.9727c0 -29.2812 -13.6748 -55.4443 -35.1074 -72.6729c45.0098 -15.9033 87.9512 -51.3799 104.827 -102.871c12.1445 -37.084 15.3496 -85.3613 -25.2158 -93.3789c-1.4082 -4.42383 -3.37402 -8.30957 -5.74023 -11.791
l0.015625 -0.0263672s-9.38477 -27.8477 -98.5137 -33.7764c-2.18164 -0.353516 -4.34668 -0.711914 -6.48242 -1.10059h-24.791c-2.83594 -0.0205078 -5.5957 0 -8.29883 0h-21.5713c-1.25391 0.235352 -2.51855 0.44043 -3.80371 0.666016
c-86.7383 4.25391 -95.3701 27.2891 -95.3701 27.2891v0.015625c-5.14062 4.97656 -9.1084 11.0898 -11.5303 18.7188c-11.7607 2.70801 -19.1641 9.76855 -19.1641 9.76855v0.0107422s-18.0273 6.70215 -17.1016 38.3945c11.3311 105.416 98.9141 142.694 111.755 147.604z
" />
    <glyph glyph-name="uniF13A" unicode="&#xf13a;" 
d="M256 422.4c127.242 0 230.4 -103.158 230.4 -230.4s-103.158 -230.4 -230.4 -230.4s-230.4 103.158 -230.4 230.4s103.158 230.4 230.4 230.4zM380.078 121.108c17.7002 0 35.4355 53.1611 35.0059 70.8916c-2.10449 87.8486 -71.2246 159.084 -159.084 159.084
c-87.8486 0 -159.089 -71.2354 -159.089 -159.084c0 -40.1924 12.8516 -72.3506 35.001 -70.8916c22.2002 1.46484 81.1924 -17.6943 70.9316 141.783c116.583 -17.6943 141.773 -106.353 141.773 -106.353s17.7305 -35.4307 35.4609 -35.4307z" />
    <glyph glyph-name="uniF17F" unicode="&#xf17f;" 
d="M309.556 172.405c-2.11523 5.47852 -5.11035 10.6504 -8.91992 15.3447c8.50977 5.00293 15.2275 8.94531 15.2275 8.94531l76.2363 45.1172c-0.880859 2.70801 -1.36719 5.60645 -1.36719 8.6123c0 15.4365 12.5439 27.9443 28.0273 27.9443
c15.4824 0 28.0322 -12.5078 28.0322 -27.9443c0 -15.4268 -12.5498 -27.9355 -28.0322 -27.9355c-6.29785 0 -12.0938 2.09961 -16.7783 5.60156c-16.9521 -10.8848 -40.7402 -25.4922 -77.0713 -46.7451zM321.516 107.729
c12.3438 3.48242 25.3281 -3.97754 28.9023 -16.6035c0.619141 -2.18164 0.921875 -4.41895 0.921875 -6.66113c0 -4.07617 -1.04492 -8.11035 -3.05664 -11.6631c-3.01074 -5.38184 -7.90527 -9.2627 -13.7676 -10.9111
c-12.3652 -3.48633 -25.334 3.96289 -28.9131 16.5986c-0.609375 2.17676 -0.911133 4.3877 -0.911133 6.58496c0 1.57715 0.322266 3.33301 0.742188 5.15527c-2.05273 1.18848 -7.99219 4.62402 -8.00781 4.63379l-12.2109 7.21973
c4.66895 3.27637 8.89844 7.04492 12.5801 11.207c7.36719 -4.89941 10.3213 -6.45117 12.8506 -7.77734c0 0 2.33496 -1.32031 3.27148 -1.8584c2.44824 1.91504 4.99219 3.33301 7.59863 4.0752zM299.33 155.167c2.98535 -26.3887 -19.8447 -50.6162 -50.9844 -54.1035
c-31.1348 -3.50195 -58.7979 15.0586 -61.7832 41.4365c-2.97949 26.3887 19.8447 50.6113 50.9854 54.1133c31.1494 3.49121 58.7979 -15.0635 61.7822 -41.4463zM451.568 180.649c19.2363 0 34.832 -15.5498 34.832 -34.7246
c0 -19.1738 -15.5957 -34.7129 -34.832 -34.7129c-16.9365 0 -31.0371 12.0518 -34.165 28.0166c-32.2051 -0.492188 -68.8691 -0.850586 -106.005 -0.993164c0.947266 3.56348 1.55664 7.21875 1.77148 10.9561c0.118164 2.24805 0.107422 4.48047 -0.0361328 6.69727
c36.7207 -0.148438 72.9551 -0.506836 104.817 -1.00879c3.97266 14.8281 17.5 25.7695 33.6172 25.7695zM188.042 109.103c1.55176 -1.66992 3.19531 -3.24121 4.9209 -4.7207c-19.0879 -11.0645 -38.7129 -22.4307 -39.4805 -22.877
c0.481445 -1.86816 0.870117 -3.66016 0.926758 -5.27832l0.0253906 -1.0293c0 -14.3203 -11.2588 -25.9834 -25.6309 -26.5371c-14.6895 -0.557617 -27.0898 10.8857 -27.668 25.5234c-0.271484 7.09668 2.25195 13.8604 7.0752 19.0615
c4.83887 5.19727 11.4229 8.21777 18.5342 8.5c7.14844 0.276367 13.9062 -2.41699 19.1904 -7.43945c9.98926 6.62988 22.041 14.2744 35.9111 22.7891c1.8125 -2.79102 3.86133 -5.47852 6.19531 -7.99219zM88.3965 229.381
c-4.7002 3.15918 -7.89453 7.96191 -8.99023 13.5166c-0.282227 1.37305 -0.415039 2.74512 -0.415039 4.1123c0 4.17773 1.24902 8.25293 3.64062 11.791c3.17969 4.70996 8.00781 7.90039 13.5938 8.98535c11.5146 2.24805 22.7168 -5.27344 24.9648 -16.7471
l0.399414 -4.07031c0 -1.54199 -0.358398 -3.25684 -0.824219 -5.0332c12.457 -7.35742 34.918 -22.0879 72.2842 -51.0723l0.28125 -0.209961c-4.36719 -4.16797 -8.16113 -8.82129 -11.208 -13.8652l-0.0400391 0.03125l-42.1787 32.4961
s-25.6719 19.8662 -27.0283 20.9209c-2.72949 -2.06836 -5.56055 -3.51758 -8.5 -4.07617c-5.59082 -1.09473 -11.2588 0.0566406 -15.9795 3.2207zM239.468 255.145c-19.2871 3.58398 -33.2031 20.0352 -33.2031 39.6348c0 22.3691 18.2471 40.5811 40.6982 40.5811
s40.7197 -18.2119 40.7197 -40.5811c0 -19.5996 -13.916 -36.04 -33.1982 -39.6348c0.404297 -12.5332 0.716797 -28.4824 0.952148 -43.8369c-2.75977 0.3125 -5.56543 0.475586 -8.40137 0.475586c-2.88281 0 -5.72949 -0.168945 -8.53516 -0.475586
c0.230469 15.3545 0.563477 31.3242 0.967773 43.8369zM173.517 149.561c-0.306641 -3.76855 -0.18457 -7.5166 0.337891 -11.2031c-32.2715 0.205078 -63.0986 0.542969 -89.5947 0.983398c-3.9834 -11.9189 -15.252 -20.5156 -28.5439 -20.5156
c-16.6299 0 -30.1162 13.4297 -30.1162 29.998c0 16.583 13.4863 30.0234 30.1162 30.0234c14.5713 0 26.7314 -10.332 29.5117 -24.0537c26.3633 0.435547 56.9805 0.77832 88.9902 0.977539c-0.363281 -2.04297 -0.59375 -4.11621 -0.701172 -6.20996z" />
    <glyph glyph-name="uniF169" unicode="&#xf169;" 
d="M423.67 218.583c1.26953 -8.68848 1.92969 -17.5615 1.92969 -26.5986c0 -106.035 -89.5381 -191.984 -200.018 -191.984c-110.434 0 -199.982 85.9492 -199.982 191.984c0 106.051 89.5488 192.016 199.982 192.016c21.668 0 42.5322 -3.34863 62.0693 -9.45703
l0.0410156 -116.044s-59.6016 32.6289 -112.891 -5.65332c-53.2891 -38.2617 -43.2588 -78.3916 -43.2588 -78.3916s2.48828 -63.4219 77.6914 -63.4219c84.0801 0 107.898 76.5801 107.898 76.5801v175.062c16.2197 -8.00195 31.2881 -18.0479 45.7676 -29.3369
c35.748 -22.1084 72.8887 -36.3877 115.358 -35.3027c0 0 8.1416 1.75098 8.1416 -14.418c0 -8.7959 -3.12891 -18.8262 -11.9092 -28.2627c0 0 -16.7119 -24.9697 -50.8213 -36.7715z" />
    <glyph glyph-name="uniF139" unicode="&#xf139;" 
d="M149.156 421.202c3.16406 0.414062 6.29688 0.824219 9.43066 1.19824c14.5254 -1.78223 21.96 -13.1484 23.1582 -32.6455c1.93457 -31.2734 -10.1279 -66.458 -15.791 -88.4531c52.9824 -11.7559 95.7344 -38.4004 122.522 -85.8877
c12.1592 -21.5811 22.958 -46.5205 24.2227 -78.0039c0.168945 -4.78711 -2.00195 -11.8525 -0.999023 -16.0615c1.10156 -4.76074 8.19727 -10.4541 12.0576 -14.3564c11.6641 -11.8779 28.1602 -27.5039 42.2861 -32.4707
c25.7227 -9.04688 62.4434 6.75293 87.0654 11.9248c16.4922 3.45605 27.4229 1.8125 32.292 -10.998c0.333008 -2.74414 0.666016 -5.47852 0.999023 -8.22266c-4.86914 -18.3604 -22.4258 -29.3223 -40.29 -38.5381
c-51.4766 -26.5166 -135.981 -39.9824 -204.692 -39.1582c-12.9229 -11.2334 -30.75 -18.5645 -51.7422 -23.3262c-10.3936 -1.33691 -20.8281 -2.67285 -31.2217 -4.00879c-25.9229 -0.988281 -56.0488 -2.49902 -70.7744 12.124
c-6.73242 6.68652 -11.7656 19.2256 -9.00098 31.457c4.26562 18.9746 27.3926 30.459 50.1816 36.04c-0.798828 6.37402 -5.59668 11.8164 -8.13086 18.6416c-9.86133 26.1016 -6.89648 59.8428 2.06836 79.8877c-5.63184 2.08887 -12.5283 2.49805 -18.2266 4.49023
c-2.16602 -6.20117 -1.59766 -11.4131 -4.73145 -15.7598c-12.5898 -17.5 -46.2178 -9.87109 -44.2158 17.8125c1.2334 16.6865 25.4258 30.0439 38.8555 38.333c7.15723 4.41895 17.0596 9.66699 25.5234 14.6592c8.29395 4.9043 17.9961 11.6221 19.8604 18.4678
c2.06348 7.50586 -1.33105 19.2871 -3.70215 24.5605c-3.56836 -0.337891 -5.06348 -4.58789 -7.26465 -7.01953c-6.96387 -7.67969 -15.0635 -15.2832 -23.7568 -22.7529c-11.1982 -9.58496 -23.6602 -20.3779 -38.3184 -24.6279
c-18.458 -5.34473 -33.7871 2.33008 -40.0537 19.8662c-0.369141 3.24023 -0.768555 6.46582 -1.16797 9.68652c7.59863 39.0859 39.4189 58.8184 74.0713 76.2471c-13.7627 15.5293 -41.1182 39.8086 -44.3799 73.9023c-1.39746 15.0781 4.39746 28.7744 15.626 35.3535
c20.127 11.8525 36.291 -8.36133 48.5479 -17.2646c5.93457 14.833 13.8652 28.0527 29.6914 34.9033zM251.085 243.988c-21.5293 21.5146 -51.1133 38.293 -85.7705 44.3242c-6.79883 1.20801 -11.9297 1.71973 -13.1582 5.14062
c-0.834961 2.29297 1.19824 8.98047 2.69824 14.0127c7.2959 24.2539 13.624 42.957 14.9912 70.9121c0.767578 15.4932 -2.36035 38.1338 -18.4219 30.2139c-13.0303 -6.40039 -19.4971 -22.124 -23.8945 -34.1455c12.5947 -11.2383 35.3887 -66.2227 0.669922 -65.8789
c-24.8926 0.271484 -18.8613 48.2656 -13.7314 64.1992c-5.72949 5.17676 -8.96484 10.1426 -15.0625 14.7666c-4.19922 3.18945 -10.9268 9.86621 -21.3916 6.33789c-6.40039 -2.12988 -10.0967 -10.9971 -10.7266 -15.0068
c-0.9375 -6.10254 0.296875 -13.0557 1.46387 -18.0273c5.06934 -21.7803 24.2227 -44.1191 36.9209 -55.1523c4.46484 -3.90625 15.1299 -6.77344 14.8633 -13.2559c-0.138672 -5.17578 -14.2646 -8.53027 -21.3965 -11.8525
c-9.66113 -4.51562 -16.4248 -9.14453 -21.3252 -12.5752c-13.5938 -9.55859 -26.3887 -19.5576 -33.7861 -31.6514c-3.06738 -5.06934 -7.73145 -13.9775 -6.06738 -22.7432c2.00195 -10.583 11.3965 -16.3076 23.7617 -13.6348
c13.0303 2.77539 27.9551 15.0732 40.9551 27.2334c6.19531 5.78516 10.3271 9.21582 17.126 16.6143c4.86426 5.23828 11.1973 16.9932 17.1934 16.6143c6.03125 -0.414062 12.5283 -17.126 13.8643 -23.2549c4.10156 -18.1602 -1.76562 -30.0137 -8.80078 -36.7666
c-9.89746 -9.4873 -25.6875 -15.6875 -41.2109 -25.001c-9.89648 -5.93359 -33.3564 -19.1543 -33.0244 -31.5186c0.333008 -14.2539 18.9238 -14.833 22.7588 -5.41699c2.49902 6.2002 -3.36426 16.3789 1.30078 19.8711
c4.62793 3.49121 13.9932 -1.30566 17.9248 -2.22266c7.73145 -1.81738 14.0645 -3.3584 18.1963 -3.76855c8.89355 10.2402 17.7256 30.418 36.1221 30.418c15.959 0 25.7588 -26.5879 14.126 -37.5752c-11.0283 -10.5215 -28.3906 -6.54883 -42.7217 -6.27246
c-13.9258 -21.9951 -11.458 -72.043 6.96387 -93.8594c15.9639 1.46387 30.791 1.40234 44.2881 -0.378906c-30.1621 41.8613 -11.3311 105.754 38.6807 112.604c44.4521 6.12793 71.8086 -23.916 75.5771 -27.541c-3.61035 52.2031 -22.5996 86.835 -49.9561 114.237z
M129.628 320.896c7.43457 0.414062 5.83203 11.5146 3.62988 18.6719c-2.33398 7.64453 -6.39941 13.1846 -8.8623 18.5654c-0.138672 0.44043 -0.235352 0.855469 -0.865234 0.645508c-2.06348 -7.87012 -4.66406 -38.5332 6.09766 -37.8828zM142.224 150.4
c9.66602 -0.133789 22.7227 -1.40332 28.8564 5.2373c1.10059 5.83203 -1.59766 11.6221 -4.69531 14.5254c-12.6309 -0.378906 -19.1953 -11.0234 -24.1611 -19.7627zM226.929 145.356c-42.2197 -7.01953 -55.5469 -61.6953 -29.8906 -94.0693
c5.29883 -6.68164 19.1279 -14.2852 18.5908 -19.5947c-0.629883 -6.54297 -7.03027 -4.38184 -12.1602 -3.08691c-15.9639 4.0752 -34.125 6.48145 -50.7139 4.86914c17.4287 -20.5928 48.9473 -30.0088 82.7705 -31.8262c11.5967 9.4873 16.1943 30.5566 6.72754 47.8516
c-3.62988 6.61523 -9.52832 9.18066 -7.63379 14.1875c2.03223 5.30957 10.0303 3.05176 16.5273 3.63574c28.2217 2.60059 41.4209 25.415 47.2832 47.79c-19.3232 16.9883 -37.7803 35.8701 -71.501 30.2432zM252.585 55.4033
c10.4297 -15.7588 5.76465 -39.7002 0.266602 -50.7695c-0.0361328 -0.0976562 -1.86914 -3.18457 -0.369141 -3.08789c71.542 2.57617 161.178 14.8691 207.125 49.3369c6.06641 4.52051 16.793 13.5625 14.4639 20.792
c-3.2666 10.0303 -30.4902 -1.06445 -39.3828 -3.52734c-12.9951 -3.56348 -30.9922 -7.15332 -45.4814 -8.08008c-40.0537 -2.5752 -57.2773 23.9365 -79.1396 44.3955c-0.967773 1.10156 -1.93555 2.05371 -2.30371 0.476562
c-8.22852 -24.6318 -22.4258 -44.498 -55.1787 -49.5361zM143.591 23.9561c-4.26562 4.38281 -4.59863 8.84277 -10.4658 7.02539c-19.3232 -6.07227 -43.5508 -14.2139 -43.1875 -32.8555c0.205078 -12.4004 10.1328 -18.8721 17.332 -21.2734
c13.9258 -4.69043 36.1523 -3.49219 56.9746 -1.78223c21.9297 1.78223 43.751 7.16309 56.3818 15.5547c-30.4844 3.97363 -57.877 13.5684 -77.0352 33.3311z" />
    <glyph glyph-name="uniF118" unicode="&#xf118;" 
d="M352.942 93.7422c2.2373 0 3.92676 -1.74121 3.84961 -5.15039c-0.0205078 -1.64355 -1.20801 -3.87598 -2.35449 -6.70801c-5.21289 -8.94434 -13.2559 -19.0566 -23.0605 -29.7471c-34.8623 -38.7734 -57.6055 -56.7656 -77.7578 -56.7656
c-17.3311 0 -26.6035 17.4082 -26.2959 33.7158c0.0302734 1.17773 0.0761719 2.83105 0.0820312 3.41016l-3.38477 -3.97363c-17.7764 -22.4561 -36.4951 -33.6436 -52.209 -33.6436c-58.2139 1.06543 -52.9766 65.7207 -36.8584 117.335
c8.8623 27.0186 26.2959 56.7754 48.5273 78.6484c17.2031 16.8145 37.6426 31.9795 62.2695 31.9795c17.3516 0 36.1367 -10.6035 39.1982 -27.9961l0.517578 -3.39941l4.61328 8.93457c15.1289 30.3457 32.0146 61.2451 42.7725 95.5645
c2.36035 7.28613 4.75098 14.582 6.04102 21.8672c2.5498 11.0898 0.967773 14.3008 3.86035 14.3008l1.94043 -0.302734c12.8213 -2.81055 23.3164 -12.3389 22.999 -28.0928c-0.173828 -9.51367 -2.61035 -19.6309 -6.18457 -28.5752
c-8.3252 -24.6992 -20.5 -48.3174 -31.0576 -72.5303c-19.3896 -45.4961 -42.0508 -89.2256 -57.5137 -136.488c-1.87891 -6.70215 -4.22852 -13.4043 -4.38184 -20.6953c-0.108398 -5.63184 0.952148 -11.2891 7.61328 -12.9326l2.11914 -0.18457
c9.49805 0 23.752 10.2041 44.4062 31.0938c12.5488 12.3389 20.0088 21.8828 24.0635 26.9414c2.27832 2.23242 3.38477 3.39453 6.18555 3.39453zM231.02 72.9395c19.1182 31.4014 34.9082 66.2939 35.625 102.764c0.260742 13.5117 -5.7041 20.8027 -17.5254 20.8027
c-13.9521 0 -23.1943 -11.7559 -31.7139 -21.3965c-28.1748 -33.1416 -47.4111 -75.8271 -48.8135 -117.335c-0.702148 -16.333 6.54297 -27.5049 17.2998 -27.5049c4.45996 0 9.43164 1.84863 14.7607 6.11328c9.14941 7.89453 21.7246 21.3916 30.3672 36.5566z
M212.582 345.288l25.3857 6.66113c3.7373 0.977539 7.57715 4.81738 8.5498 8.56543l6.64062 25.4824c0.952148 3.72168 2.54492 3.72168 3.52246 0l6.64062 -25.4824c0.983398 -3.74316 4.80273 -7.58789 8.53516 -8.56543l25.3955 -6.66113
c3.7168 -0.962891 3.7168 -2.56543 0 -3.54297l-25.3955 -6.64648c-3.73242 -0.988281 -7.55176 -4.83301 -8.53516 -8.56055l-6.64062 -25.4717c-0.972656 -3.73242 -2.57031 -3.73242 -3.52246 0l-6.64062 25.4717c-0.972656 3.73242 -4.8125 7.57227 -8.5498 8.56055
l-25.3857 6.64648c-3.7168 0.977539 -3.7168 2.58008 0 3.54297zM139.377 162.452l-15.7598 60.4678c-2.5957 9.96289 -12.8359 20.2344 -22.7842 22.8447l-67.7988 17.7822c-9.91211 2.60059 -9.91211 6.85547 0 9.4668l67.8047 17.7764
c9.94727 2.60156 20.1875 12.8877 22.7832 22.8408l17.7158 68.0137c2.5957 9.96387 6.83984 9.96387 9.44141 0l17.7305 -68.0137c2.58496 -9.95312 12.8408 -20.2393 22.7686 -22.8408l67.8086 -17.7764c9.92285 -2.61133 9.92285 -6.86621 0 -9.4668l-67.8086 -17.7822
c-9.92285 -2.61035 -20.1777 -12.8818 -22.7686 -22.8447l-8.10059 -31.0996c-7.64844 -8.94434 -14.7559 -18.8672 -21.0322 -29.3682zM441.779 144.03l40.207 -10.5518c5.88867 -1.5459 5.88867 -4.07031 0 -5.61719l-40.207 -10.5312
c-5.88281 -1.55664 -11.9502 -7.64941 -13.4961 -13.5479l-10.5273 -40.3252c-1.53613 -5.90332 -4.0293 -5.90332 -5.58008 0l-10.5166 40.3252c-1.53613 5.89844 -7.59863 11.9912 -13.502 13.5479l-40.1865 10.5312c-5.89355 1.54688 -5.89355 4.07129 0 5.61719
l40.1865 10.5518c5.89844 1.52637 11.9658 7.61914 13.502 13.5381l10.5166 40.3193c1.55078 5.89844 4.04395 5.89844 5.58008 0l10.5273 -40.3193c1.5459 -5.91895 7.6084 -12.0117 13.4961 -13.5381z" />
    <glyph glyph-name="uniF14F" unicode="&#xf14f;" 
d="M484.398 253.251v-237.491h-111.171v236.605h-63.6416v-236.605h-111.171v236.605h-63.6416v-236.605h-111.176v236.605v0v111.554h460.801v-110.668z" />
    </font>
</defs>
</svg>
